<?xml version="1.0" standalone="no"?>
<!DOCTYPE svg PUBLIC "-//W3C//DTD SVG 1.1//EN" "http://www.w3.org/Graphics/SVG/1.1/DTD/svg11.dtd">
<svg xmlns="http://www.w3.org/2000/svg">
<metadata>Copyright (C) 2025 by original authors @ fontello.com</metadata>
<defs>
<font id="themify" horiz-adv-x="1000" >
<font-face font-family="themify" font-weight="400" font-stretch="normal" units-per-em="1000" ascent="850" descent="-150" />
<missing-glyph horiz-adv-x="1000" />
<glyph glyph-name="agenda" unicode="&#xe800;" d="M824 732v118h-765v-1000h765v118h117v764h-117z m-706-823v882h117v-882h-117z m647 0h-471v882h471v-882z m117 118h-58v176h58v-176z m0 235h-58v176h58v-176z m-58 235v177h58v-177h-58z m-471 118h294v-59h-294v59z m0-118h235v-59h-235v59z" horiz-adv-x="1000" />

<glyph glyph-name="align-center" unicode="&#xe801;" d="M1000 732v-58h-1000v58h1000z m-912-235v-59h824v59h-824z m-88-294h1000v59h-1000v-59z m206-235h588v59h-588v-59z" horiz-adv-x="1000" />

<glyph glyph-name="alert" unicode="&#xe802;" d="M497 762l-484-853h975l-491 853z m1-118l388-676h-772l384 676z m31-437h-58v231h58v-231z m30-123c0-33-26-59-59-59s-59 26-59 59 27 58 59 58 59-26 59-58z" horiz-adv-x="1000" />

<glyph glyph-name="angle-double-down" unicode="&#xe803;" d="M500 224l-403 403 41 42 362-362 362 362 41-42-403-403z m0-202l-361 362-42-42 403-403 403 403-41 42-362-362z" horiz-adv-x="1000" />

<glyph glyph-name="alarm-clock" unicode="&#xe804;" d="M866 451c29 30 46 69 46 112 0 88-72 160-160 160-53 0-100-26-130-68-30 9-61 15-93 17v60h59v59h-176v-59h59v-60c-32-2-63-8-93-17-30 42-77 68-129 68-89 0-161-72-161-160 0-43 17-82 47-112-30-57-47-121-47-189 0-101 37-193 96-264l-75-101 47-35 70 93c73-65 169-105 274-105s201 40 274 105l70-93 47 35-75 101c60 71 96 163 96 264 0 68-17 132-46 189z m-114 213c55 0 101-45 101-101 0-22-7-43-20-60-40 55-93 99-154 129 19 20 44 32 73 32z m-605-101c0 55 46 101 102 101 28 0 54-12 73-32-62-30-115-74-155-129-13 17-20 38-20 60z m353-654c-195 0-353 158-353 353s158 353 353 353 353-159 353-353-158-353-353-353z m29 353h236v-59h-294v235h58v-176z" horiz-adv-x="1000" />

<glyph glyph-name="align-left" unicode="&#xe805;" d="M1000 732v-58h-1000v58h1000z m-176-235h-824v-59h824v59z m-824-294h1000v59h-1000v-59z m0-235h588v59h-588v-59z" horiz-adv-x="1000" />

<glyph glyph-name="align-justify" unicode="&#xe806;" d="M1000 732v-58h-1000v58h1000z m-1000-294h1000v59h-1000v-59z m0-235h1000v59h-1000v-59z m0-235h1000v59h-1000v-59z" horiz-adv-x="1000" />

<glyph glyph-name="anchor" unicode="&#xe807;" d="M900 109l-93 184-184-92 27-53 110 56c-22-113-115-198-231-211v445h89v59h-89v62c68 14 118 73 118 144 0 81-66 147-147 147s-147-66-147-147c0-71 51-130 118-144v-62h-89v-59h89v-445c-115 13-208 98-230 210l109-55 26 53-184 92-92-184 53-26 38 76c41-132 164-228 309-228 145 0 268 96 309 227l38-75 53 26z m-488 594c0 49 39 88 88 88s88-39 88-88-39-88-88-88-88 39-88 88z" horiz-adv-x="1000" />

<glyph glyph-name="android" unicode="&#xe808;" d="M224 515h552v-400c0-37-29-67-65-67h-46v-136c0-34-27-62-61-62-35 0-63 28-63 62v136h-82v-136c0-34-28-62-62-62-34 0-62 28-62 62l0 136h-45c-36 0-66 30-66 67v400z m-85 11c-35 0-62-27-62-61v-258c0-35 27-62 62-62s61 27 61 62v258c0 34-28 61-61 61z m639 11h-556c0 95 57 178 142 221l-43 79c-3 4-1 10 3 12 4 2 10 1 12-3l43-80c37 17 78 26 121 26s84-9 121-26l43 80c3 4 8 5 12 3 4-2 6-8 3-12l-43-78c85-44 142-127 142-222z m-381 123c0 13-11 24-24 24-12 0-23-11-23-24 0-12 11-23 23-23 13 0 24 11 24 23z m253 0c0 13-10 24-23 24-13 0-23-11-23-24 0-12 10-23 23-23 13 0 23 11 23 23z m211-134c-33 0-61-27-61-61v-258c0-35 28-62 61-62 35 0 62 27 62 62v258c0 34-27 61-62 61z" horiz-adv-x="1000" />

<glyph glyph-name="align-right" unicode="&#xe809;" d="M1000 732v-58h-1000v58h1000z m-823-294h823v59h-823v-59z m-177-235h1000v59h-1000v-59z m412-235h588v59h-588v-59z" horiz-adv-x="1000" />

<glyph glyph-name="angle-double-right" unicode="&#xe80a;" d="M567 350l-403-403-41 41 361 362-361 362 41 41 403-403z m-118 403l-41-41 361-362-361-362 41-41 403 403-403 403z" horiz-adv-x="1000" />

<glyph glyph-name="angle-double-left" unicode="&#xe80b;" d="M470 350l361-362-41-41-403 403 403 403 41-41-361-362z m77 362l-42 41-403-403 403-403 42 41-362 362 362 362z" horiz-adv-x="1000" />

<glyph glyph-name="angle-right" unicode="&#xe80c;" d="M777 352l-462-462-42 41 421 421-421 420 42 42 462-462z" horiz-adv-x="1000" />

<glyph glyph-name="angle-down" unicode="&#xe80d;" d="M962 552l-462-462-462 462 42 41 420-420 420 420 42-41z" horiz-adv-x="1000" />

<glyph glyph-name="angle-double-up" unicode="&#xe80e;" d="M500 493l403-403-41-42-362 362-361-362-42 42 403 403z m0 202l362-362 41 42-403 403-403-403 42-42 361 362z" horiz-adv-x="1000" />

<glyph glyph-name="announcement" unicode="&#xe80f;" d="M969 719h-114c-17 0-31-13-31-30v-40l-647-237v16c0 26-21 46-46 46h-84c-26 0-47-20-47-46v-275c0-26 21-46 47-46h84c25 0 46 20 46 46v19l61-11c-1-10-2-19-2-29 0-112 92-203 205-203 97 0 178 67 199 158l184-34v-38c0-17 14-31 31-31h114c17 0 31 14 31 31v674c0 17-14 30-31 30z m-528-731c-81 0-146 65-146 144 0 6 1 12 2 18l285-52c-16-64-73-110-141-110z m500 55h-58v59l-764 141v-78h-60v250h60v-87l764 280v53h58v-618z" horiz-adv-x="1000" />

<glyph glyph-name="apple" unicode="&#xe810;" d="M824 196c-28 39-42 84-42 134 0 45 13 87 39 124 15 21 38 45 69 71-21 25-42 46-63 60-37 26-80 39-128 39-29 0-64-7-104-20-39-14-68-21-86-21-13 0-41 6-83 18-42 12-77 18-106 18-69 0-126-29-171-86-45-59-67-133-67-225 0-99 30-199 88-302 59-104 119-156 181-156 20 0 46 7 79 20 33 14 61 20 85 20 25 0 56-6 91-19 36-13 64-19 84-19 51 0 103 39 155 118 35 52 59 102 74 150-36 11-68 36-95 76z m-28-194c-39-59-77-91-106-91-8 0-27 2-63 15-41 15-79 23-112 23-31 0-68-8-108-24-34-15-51-16-56-16-37 0-83 45-130 126-54 96-81 185-81 273 0 79 19 140 56 189 34 43 73 63 124 63 24 0 53-5 90-15 62-18 85-21 99-21 25 0 60 8 105 24 35 11 63 17 85 17 36 0 67-9 95-28 4-3 8-6 12-10-14-13-24-27-33-39-33-48-50-101-50-158 0-62 18-118 52-168 21-30 44-53 70-71-13-29-30-59-49-89z m-242 615c-13-4-34-8-62-10 1 59 17 111 47 154 30 43 80 73 150 89 1-5 2-10 3-13 0-4 1-8 1-12 0-25-6-52-18-82-12-30-30-58-56-83-21-21-43-36-65-43z" horiz-adv-x="1000" />

<glyph glyph-name="angle-up" unicode="&#xe811;" d="M962 150l-42-41-420 420-420-420-42 41 462 462 462-462z" horiz-adv-x="1000" />

<glyph glyph-name="angle-left" unicode="&#xe812;" d="M306 352l421-421-42-41-462 462 462 462 42-42-421-420z" horiz-adv-x="1000" />

<glyph glyph-name="archive" unicode="&#xe813;" d="M1000 732h-1000v-235h59v-647h882v647h59v235z m-118-823h-764v588h764v-588z m59 647h-882v118h882v-118z m-588-353h295c65 0 118 53 118 118s-53 117-118 117h-295c-65 0-118-52-118-117s53-118 118-118z m0 176h295c33 0 59-26 59-58s-26-59-59-59h-295c-32 0-59 26-59 59s27 58 59 58z" horiz-adv-x="1000" />

<glyph glyph-name="arrow-circle-left" unicode="&#xe814;" d="M639 565l-215-215 214-214-41-42-256 256 256 256 42-41z m361-215c0-276-224-500-500-500s-500 224-500 500 224 500 500 500 500-224 500-500z m-59 0c0 243-198 441-441 441s-441-198-441-441 198-441 441-441 441 198 441 441z" horiz-adv-x="1000" />

<glyph glyph-name="arrow" unicode="&#xe815;" d="M800 182l-41 42 96 97h-326v-326l97 96 42-41-168-168-168 168 42 41 97-96v326h-326l96-97-41-42-168 168 168 168 41-42-96-97h326v326l-97-96-42 41 168 168 168-168-42-41-97 96v-326h326l-96 97 41 42 168-168-168-168z" horiz-adv-x="1000" />

<glyph glyph-name="arrow-circle-down" unicode="&#xe816;" d="M715 489l41-42-256-256-256 256 42 41 214-214 215 215z m285-139c0-276-224-500-500-500s-500 224-500 500 224 500 500 500 500-224 500-500z m-59 0c0 243-198 441-441 441s-441-198-441-441 198-441 441-441 441 198 441 441z" horiz-adv-x="1000" />

<glyph glyph-name="arrow-circle-up" unicode="&#xe817;" d="M500 509l256-256-41-41-215 214-214-214-42 41 256 256z m500-159c0-276-224-500-500-500s-500 224-500 500 224 500 500 500 500-224 500-500z m-59 0c0 243-198 441-441 441s-441-198-441-441 198-441 441-441 441 198 441 441z" horiz-adv-x="1000" />

<glyph glyph-name="arrow-circle-right" unicode="&#xe818;" d="M403 606l256-256-256-256-41 42 214 214-214 215 41 41z m597-256c0-276-224-500-500-500s-500 224-500 500 224 500 500 500 500-224 500-500z m-59 0c0 243-198 441-441 441s-441-198-441-441 198-441 441-441 441 198 441 441z" horiz-adv-x="1000" />

<glyph glyph-name="arrow-left" unicode="&#xe819;" d="M941 322h-752l361-361-41-42-433 433 433 432 41-41-361-362h752v-59z" horiz-adv-x="1000" />

<glyph glyph-name="arrow-down" unicode="&#xe81a;" d="M933 329l-433-432-433 432 42 42 362-362v782h58v-782l362 362 42-42z" horiz-adv-x="1000" />

<glyph glyph-name="arrow-right" unicode="&#xe81b;" d="M924 352l-433-433-41 42 361 361h-752v59h752l-361 362 41 41 433-432z" horiz-adv-x="1000" />

<glyph glyph-name="arrows-corner" unicode="&#xe81c;" d="M882 291v-323h-323v59h224l-606 606v-224h-59v323h323v-58h-222l605-605v222h58z" horiz-adv-x="1000" />

<glyph glyph-name="arrows-vertical" unicode="&#xe81d;" d="M685 140l42-41-227-232-227 232 42 41 156-159v738l-156-159-42 41 227 232 227-232-42-41-156 159v-738l156 159z" horiz-adv-x="1000" />

<glyph glyph-name="arrows-horizontal" unicode="&#xe81e;" d="M983 350l-232-227-41 42 159 156h-738l159-156-41-42-232 227 232 227 41-42-159-156h738l-159 156 41 42 232-227z" horiz-adv-x="1000" />

<glyph glyph-name="arrow-top-left" unicode="&#xe81f;" d="M723 85l-607 606v-429h-59v529h531v-58h-430l607-606-42-42z" horiz-adv-x="1000" />

<glyph glyph-name="back-left" unicode="&#xe820;" d="M882 409c0-179-145-324-323-324h-171l155-155-41-42-227 227 227 226 41-41-155-156h171c146 0 265 119 265 265s-119 265-265 265h-417v58h417c178 0 323-145 323-323z" horiz-adv-x="1000" />

<glyph glyph-name="arrow-up" unicode="&#xe821;" d="M891 329l-362 362v-782h-58v782l-362-362-42 42 433 432 433-432-42-42z" horiz-adv-x="1000" />

<glyph glyph-name="arrow-top-right" unicode="&#xe822;" d="M941 791v-529h-59v429l-606-606-42 42 607 606h-431v58h531z" horiz-adv-x="1000" />

<glyph glyph-name="blackboard" unicode="&#xe823;" d="M529 732v118h-58v-118h-412v-588h882v588h-412z m353-529h-764v471h764v-471z m-676-118h588v-58h-152l89-137-50-32-109 169h-43v-177h-58v177h-42l-110-169-49 32 89 137h-153v58z" horiz-adv-x="1000" />

<glyph glyph-name="bar-chart" unicode="&#xe824;" d="M1000-91v-59h-1000v59h1000z m-882 353h117v-294h59v353h-235v-353h59v294z m294 176h117v-470h59v529h-235v-529h59v470z m294 236h118v-706h58v764h-235v-764h59v706z" horiz-adv-x="1000" />

<glyph glyph-name="back-right" unicode="&#xe825;" d="M858-32v-59h-417c-178 0-323 145-323 323s145 324 323 324h172l-156 156 41 41 227-226-227-227-41 41 156 156h-172c-146 0-264-119-264-265s118-264 264-264h417z" horiz-adv-x="1000" />

<glyph glyph-name="bar-chart-alt" unicode="&#xe826;" d="M1000-91v-59h-1000v59h1000z m-294 353h118v-294h58v353h-235v-353h59v294z m-294 176h117v-470h59v529h-235v-529h59v470z m-294 236h117v-706h59v764h-235v-764h59v706z" horiz-adv-x="1000" />

<glyph glyph-name="basketball" unicode="&#xe827;" d="M501 850c-276 0-500-224-500-500s224-500 500-500 500 224 500 500-224 500-500 500z m263-471c6 86 36 168 88 237 51-67 83-148 89-237h-177z m177-58c-6-89-38-170-89-237-52 69-82 151-88 237h177z m-128 340c-64-80-102-179-108-282h-176v411c111-7 211-55 284-129z m-342 129v-411h-174c-6 104-44 202-108 282 73 74 172 121 282 129z m-410-411c6 89 38 170 89 237 52-69 82-151 88-237h-177z m177-58c-6-86-36-168-88-237-51 67-83 148-89 237h177z m-49-282c64 80 102 179 108 282h174v-411c-110 8-209 55-282 129z m340-129v411h176c6-103 44-202 108-282-73-74-173-122-284-129z" horiz-adv-x="1000" />

<glyph glyph-name="bag" unicode="&#xe828;" d="M765 615v141c0 52-44 94-97 94h-335c-53 0-97-42-97-94v-141h-177v-765h882v765h-176z m-470 141c0 19 17 35 38 35h335c21 0 38-16 38-35v-141h-411v141z m587-847h-764v470h764v-470z m0 529h-764v118h118v-38h59v38h411v-38h59v38h117v-118z" horiz-adv-x="1000" />

<glyph glyph-name="bell" unicode="&#xe829;" d="M901 19c-1 1-77 76-77 189v194c0 182-146 330-324 330s-323-148-323-330v-194c0-109-77-188-78-189l-50-50h904l-52 50z m-721 8c26 41 55 104 55 181v194c0 150 119 272 265 272s265-122 265-272v-194c0-78 29-140 55-181h-640z m349 705h-58v59h58v-59z m0-764h59c0-49-39-89-88-89s-88 40-88 89h59c0-17 13-30 29-30s29 13 29 30z" horiz-adv-x="1000" />

<glyph glyph-name="bolt" unicode="&#xe82a;" d="M842 732h-421l-137-413h98l-118-356 558 474h-171l191 295z m-180-354l-276-234 78 234h-98l98 295h270l-191-295h119z" horiz-adv-x="1000" />

<glyph glyph-name="bolt-alt" unicode="&#xe82b;" d="M696 379l-225-425-52 27 179 340h-300l288 428 49-33-227-337h288z" horiz-adv-x="1000" />

<glyph glyph-name="book" unicode="&#xe82c;" d="M976 782c-3 1-78 15-175 15-124 0-225-22-302-64-89 45-192 67-305 67-99 0-169-17-172-18l-22-6 0-818 37 9c0 1 66 17 157 17 85 0 163-14 233-41v-49h147v50c75 29 161 36 227 36 92 0 164-13 164-13l35-6v817l-24 4z m-917-750v698c26 4 75 12 135 12 103 0 196-22 277-62v-693c-83 37-175 56-277 56-57 0-105-6-135-11z m882-2c-31 4-82 9-140 9-109 0-199-17-272-50v692c84 46 193 57 272 57 60 0 112-6 140-10v-698z" horiz-adv-x="1000" />

<glyph glyph-name="briefcase" unicode="&#xe82d;" d="M412 85v89h59v-30h58v30h59v-89h-176z m588 118h-59v-353h-882v353h-59v471h213c55 107 165 176 287 176s232-69 287-176h213v-471z m-719 471h439c-49 72-130 117-220 117s-171-45-219-117z m601-471h-764v-294h764v294z m59 412h-882v-353h882v353z" horiz-adv-x="1000" />

<glyph glyph-name="bookmark" unicode="&#xe82e;" d="M210 791v-909l275 192 280-192v909h-555z m496-797l-221 152-217-151v737h438v-738z" horiz-adv-x="1000" />

<glyph glyph-name="brush" unicode="&#xe82f;" d="M936 745l-382-559-49 34 383 558 48-33z m-407-718c0-65-52-118-117-118-12 0-32-1-32-1h-321l268 202c9 6 51 35 85 35 65 0 117-53 117-118z m-58 0c0 32-27 59-59 59-10 0-34-12-50-23l-127-96h143c4 0 22 1 34 1 32 0 59 26 59 59z" horiz-adv-x="1000" />

<glyph glyph-name="camera" unicode="&#xe830;" d="M351 674v58h-172v-58h-179v-706h1000v706h-649z m590-647h-882v411h386c-21-34-33-74-33-117 0-130 105-236 235-236s235 106 235 236c0 43-12 83-32 117h91v-411z m-117 294c0-98-80-177-177-177s-176 79-176 177 79 176 176 176 177-79 177-176z m-23 176c-41 36-95 59-154 59s-112-23-154-59h-434v118h882v-118h-140z" horiz-adv-x="1000" />

<glyph glyph-name="comments-smiley" unicode="&#xe831;" d="M765 379h59c0-145-119-264-265-264s-265 119-265 264h59c0-113 92-205 206-205s206 92 206 205z m-324 89c33 0 59 26 59 59s-26 58-59 58-59-26-59-58 27-59 59-59z m236 0c32 0 58 26 58 59s-26 58-58 58-59-26-59-58 26-59 59-59z m323-59c0-243-198-441-441-441-79 0-156 21-224 61l-323-167 167 323c-40 68-61 145-61 224 0 243 198 441 441 441s441-198 441-441z m-59 0c0 211-171 382-382 382s-382-171-382-382c0-73 21-145 60-207l10-14-98-189 189 98 14-10c62-39 134-60 207-60 211 0 382 171 382 382z" horiz-adv-x="1000" />

<glyph glyph-name="comment" unicode="&#xe832;" d="M912 850h-824c-48 0-88-40-88-88v-588c0-49 40-89 88-89h30v-241l275 241h519c48 0 88 40 88 89v588c0 48-40 88-88 88z m29-676c0-17-13-30-29-30h-541l-194-170v170h-89c-16 0-29 13-29 30v588c0 16 13 29 29 29h824c16 0 29-13 29-29v-588z" horiz-adv-x="1000" />

<glyph glyph-name="calendar" unicode="&#xe833;" d="M824 732v59h-177v-59h-294v59h-176v-59h-177v-882h1000v882h-176z m-118 0h59v-117h-59v117z m-471 0h59v-117h-59v117z m706-823h-882v525h882v-525z m-882 583v182h118v-118h176v118h294v-118h177v118h117v-182h-882z" horiz-adv-x="1000" />

<glyph glyph-name="check-box" unicode="&#xe834;" d="M824 511h58v-602h-823v823h494v-58h-435v-706h706v543z m-538-140l-42-42 202-202 446 677-49 33-406-617-151 151z" horiz-adv-x="1000" />

<glyph glyph-name="bookmark-alt" unicode="&#xe835;" d="M590 257v593h-356v-593l177 121 179-121z m-297 111v423h238v-423l-120 81-118-81z m648 423v-882h-882v882h116v-59h-57v-764h764v764h-235v59h294z" horiz-adv-x="1000" />

<glyph glyph-name="brush-alt" unicode="&#xe836;" d="M1000 407c0 49-40 88-88 88h-283l17 54 1 213c0 48-39 88-88 88h-118c-48 0-88-40-88-88v-203l18-64h-283c-48 0-88-39-88-88v-205h55l-45-352h980l-45 352h55v205z m-77-498h-99v118h-59v-118h-59v176h-59v-176h-59v235h-59v-235h-294v118h-58v-118h-100l37 293h772l37-293z m-861 352h-3v146c0 16 13 29 29 29h363l-39 127v199c0 16 13 29 29 29h118c16 0 29-13 29-29v-200l-39-126h363c16 0 29-13 29-29v-146h-879z m409 471h58v-58h-58v58z" horiz-adv-x="1000" />

<glyph glyph-name="control-stop" unicode="&#xe837;" d="M177 674v-647h647v647h-647z m588-589h-530v530h530v-530z" horiz-adv-x="1000" />

<glyph glyph-name="control-pause" unicode="&#xe838;" d="M177-32h235v764h-235v-764z m58 706h118v-647h-118v647z m353 58v-764h236v764h-236z m177-705h-118v647h118v-647z" horiz-adv-x="1000" />

<glyph glyph-name="comments" unicode="&#xe839;" d="M1000 762v-469c0-49-40-88-88-88h-30v59h30c16 0 29 13 29 29v469c0 16-13 29-29 29h-824c-16 0-29-13-29-29v-469c0-16 13-29 29-29h89v-170l104 92 39-44-202-179v242h-30c-48 0-88 39-88 88v469c0 48 40 88 88 88h824c48 0 88-40 88-88z m-175-473v-179c0-49-40-88-88-88h-30v-181l-216 181h-50c-48 0-88 39-88 88v179c0 49 40 88 88 88h296c48 0 88-39 88-88z m-59 0c0 16-13 29-29 29h-296c-16 0-29-13-29-29v-179c0-16 13-30 29-30h72l135-113v113h89c16 0 29 14 29 30v179z" horiz-adv-x="1000" />

<glyph glyph-name="control-shuffle" unicode="&#xe83a;" d="M526 446l64 79-1 0c51 57 123 90 199 90h112l-97 97 41 41 168-168-168-168-41 42 97 97h-112c-58 0-114-25-153-68l-63-79-46 37z m-182-225l0 0c-40-49-98-77-161-77h-183v-59h183c80 0 155 36 206 99l1-1 55 69-46 37-55-68z m459 20l97-97h-112c-62 0-119 28-159 76l-251 309-1 0c-50 54-120 86-194 86h-183v-59h183c59 0 114-25 153-69l245-302 0 0c50-63 126-100 207-100h112l-97-97 41-41 168 168-168 168-41-42z" horiz-adv-x="1000" />

<glyph glyph-name="clip" unicode="&#xe83b;" d="M707 601v-500h-59v500c0 64-47 133-150 133-114 0-145-83-145-133v-478h1v-85c0-37 41-71 84-71 49 0 92 40 92 73v16h0l0 448c0 51-14 51-27 51-22 0-32-2-32-48v-303h-59v303c0 26 0 107 91 107 39 0 86-19 86-110l0-379h0v-85c0-70-72-132-151-132-76 0-143 60-143 130v4h0v559c0 93 63 192 203 192 137 0 209-97 209-192z" horiz-adv-x="1000" />

<glyph glyph-name="check" unicode="&#xe83c;" d="M907 746l-520-794-289 258 39 44 239-212 482 736 49-32z" horiz-adv-x="1000" />

<glyph glyph-name="car" unicode="&#xe83d;" d="M1000 263l-115 0-121 234h-467l-175-235-122 0v-293h118c0-1 0-1 0-1 0-65 52-118 117-118s118 53 118 118c0 0 0 0 0 1h294c0-1 0-1 0-1 0-65 53-118 118-118s117 53 117 118c0 0 0 0 0 1h118v294z m-181 0l-229-1v176h138l91-175z m-493 175h205v-176l-336 0 131 176z m-91-529c-32 0-58 26-58 59s26 59 58 59 59-27 59-59-26-59-59-59z m530 0c-33 0-59 26-59 59s26 59 59 59 59-27 59-59-27-59-59-59z m176 119h-76c-20 34-57 57-100 57s-80-23-101-57h-328c-21 34-58 57-101 57s-80-23-100-57h-76v175l882 1v-176z" horiz-adv-x="1000" />

<glyph glyph-name="close" unicode="&#xe83e;" d="M542 350l391-391-42-42-391 391-391-391-41 42 390 391-391 391 42 42 391-391 391 391 42-42-391-391z" horiz-adv-x="1000" />

<glyph glyph-name="cloud-up" unicode="&#xe83f;" d="M1000 453c0-138-112-250-250-250h-162v59h162c105 0 191 86 191 191s-86 191-191 191c-31 0-62-8-92-24l-21-12-15 18c-42 49-103 77-166 77-98 0-182-64-210-158l-8-25-25 4c-7 1-14 3-22 3-73 0-132-60-132-133s59-132 132-132h218v-59h-218c-105 0-191 86-191 191 0 108 90 196 197 191 42 107 143 177 259 177 73 0 142-29 195-81 32 15 65 22 99 22 138 0 250-112 250-250z m-374-124l42 42-168 168-168-168 42-42 97 97v-458h58v458l97-97z" horiz-adv-x="1000" />

<glyph glyph-name="cloud" unicode="&#xe840;" d="M750 585c-34 0-67-7-99-21-53 51-122 80-195 80-116 0-217-70-259-176-106 4-197-84-197-191 0-106 86-192 191-192h559c138 0 250 113 250 250s-112 250-250 250z m0-441h-559c-73 0-132 60-132 133s59 132 132 132c8 0 15-1 22-2l25-5 8 25c28 95 112 158 210 158 63 0 124-28 166-77l15-18 21 12c30 16 61 25 92 25 105 0 191-86 191-192s-86-191-191-191z" horiz-adv-x="1000" />

<glyph glyph-name="cloud-down" unicode="&#xe841;" d="M1000 453c0-138-112-250-250-250h-162v59h162c105 0 191 86 191 191s-86 191-191 191c-31 0-62-8-92-24l-21-12-15 18c-42 49-103 77-166 77-98 0-182-64-210-158l-8-25-25 4c-7 1-14 3-22 3-73 0-132-60-132-133s59-132 132-132h218v-59h-218c-105 0-191 86-191 191 0 108 89 196 197 191 42 107 143 177 259 177 73 0 142-29 195-81 32 15 65 22 99 22 138 0 250-112 250-250z m-471-411v455h-58v-455l-97 97-42-41 168-168 168 168-42 41-97-97z" horiz-adv-x="1000" />

<glyph glyph-name="clipboard" unicode="&#xe842;" d="M941 732v-882h-882v882h132v-58h-73v-765h764v765h-75v58h134z m-176-176h-530v235h182c12 34 45 59 83 59s71-25 83-59h182v-235z m-59 176h-177v30c0 16-13 29-29 29s-29-13-29-29v-30h-177v-117h412v117z" horiz-adv-x="1000" />

<glyph glyph-name="comment-alt" unicode="&#xe843;" d="M912 850h-824c-48 0-88-40-88-88v-588c0-49 40-89 88-89h30v-241l275 241h519c48 0 88 40 88 89v588c0 48-40 88-88 88z m29-676c0-17-13-30-29-30h-541l-194-170v170h-89c-16 0-29 13-29 30v588c0 16 13 29 29 29h824c16 0 29-13 29-29v-588z m-764 500h647v-59h-647v59z m0-118h647v-59h-647v59z m0-118h352v-59h-352v59z" horiz-adv-x="1000" />

<glyph glyph-name="control-play" unicode="&#xe844;" d="M177 692v-684l683 344-683 340z m58-95l493-246-493-247v493z" horiz-adv-x="1000" />

<glyph glyph-name="control-skip-backward" unicode="&#xe845;" d="M395 349l429-356v714l-429-358z m370-230l-278 230 278 232v-462z m-588 613h58v-764h-58v764z" horiz-adv-x="1000" />

<glyph glyph-name="control-backward" unicode="&#xe846;" d="M395 352l429-359v714l-429-355z m370-233l-278 232 278 231v-463z m-572 232l326-273-38-45-380 319 380 315 38-46-326-270z" horiz-adv-x="1000" />

<glyph glyph-name="control-skip-forward" unicode="&#xe847;" d="M177-7l428 359-428 355v-714z m58 589l278-231-278-232v463z m589 150v-764h-59v764h59z" horiz-adv-x="1000" />

<glyph glyph-name="control-forward" unicode="&#xe848;" d="M177 707v-714l428 359-428 355z m58-125l278-231-278-232v463z m664-230l-380-319-38 46 326 272-326 271 38 45 380-315z" horiz-adv-x="1000" />

<glyph glyph-name="control-record" unicode="&#xe849;" d="M500 703c-195 0-353-158-353-353s158-353 353-353 353 158 353 353-158 353-353 353z m0-647c-162 0-294 132-294 294s132 294 294 294 294-132 294-294-132-294-294-294z" horiz-adv-x="1000" />

<glyph glyph-name="credit-card" unicode="&#xe84a;" d="M912 732h-824c-48 0-88-39-88-88v-588c0-49 40-88 88-88h824c48 0 88 39 88 88v588c0 49-40 88-88 88z m29-676c0-16-13-29-29-29h-824c-16 0-29 13-29 29v323h882v-323z m-882 500v88c0 16 13 30 29 30h824c16 0 29-14 29-30v-88h-882z" horiz-adv-x="1000" />

<glyph glyph-name="control-eject" unicode="&#xe84b;" d="M499 690l-356-428h714l-358 428z m0-92l232-277h-462l230 277z m383-513v-58h-764v58h764z" horiz-adv-x="1000" />

<glyph glyph-name="cut" unicode="&#xe84c;" d="M765 203c-32 0-62-9-88-24l-136 144 368 389-43 41-366-387-366 387-43-41 369-389-137-144c-26 15-56 24-88 24-97 0-176-79-176-176s79-177 176-177 177 79 177 177c0 43-17 83-44 114l132 139 132-139c-27-31-44-71-44-114 0-98 79-177 177-177s176 79 176 177-79 176-176 176z m-530-294c-65 0-117 53-117 118s52 117 117 117 118-53 118-117-53-118-118-118z m530 0c-65 0-118 53-118 118s53 117 118 117 117-53 117-117-52-118-117-118z" horiz-adv-x="1000" />

<glyph glyph-name="cup" unicode="&#xe84d;" d="M1000 791h-133c0 10 1 20 1 30v29h-736v-29c0-10 1-20 1-30h-133l0-29c0-64 4-129 12-195 20-173 74-373 164-417 11-5 23-8 35-8 14 0 28 4 42 12l12 8c49-75 116-126 206-135v-118h-174v-59h412v59h-180v117c84 9 153 55 206 136l14-9c12-7 26-11 40-11 12 0 24 3 35 8 90 44 144 244 165 417 7 66 11 131 11 195l0 29z m-765-578l-14-9c-6-4-12-4-19-1-46 23-106 157-132 371-6 53-10 106-11 158h75c6-172 30-380 105-526l-4 7z m265-130c-267 0-306 473-309 708h618c-3-277-50-708-309-708z m430 491c-25-214-86-348-132-371-7-3-12-3-18 0l-15 10-6-10c63 119 100 298 107 529h75c-1-52-4-105-11-158z" horiz-adv-x="1000" />

<glyph glyph-name="download" unicode="&#xe84e;" d="M1000-91v-59h-1000v59h1000z m-214 420l-42 42-214-215v694h-59v-694l-215 215-41-42 285-285 286 285z" horiz-adv-x="1000" />

<glyph glyph-name="direction" unicode="&#xe84f;" d="M979 532l-165 200h-285v118h-58v-118h-412v-411h412v-471h58v471h285l165 211z m-450-153h-411v295h668l118-143-119-152h-256z" horiz-adv-x="1000" />

<glyph glyph-name="dropbox-alt" unicode="&#xe850;" d="M29 300l277-180 194 161-279 173z m277 488l-277-181 192-153 279 172z m665-181l-277 181-194-162 279-172z m-471-326l194-161 277 180-192 154z m1-34l-195-162-83 55v-61l278-167 277 167v61l-83-55z" horiz-adv-x="1000" />

<glyph glyph-name="dropbox" unicode="&#xe851;" d="M991 593l-311 203-180-149-179 149-312-203 182-146-182-146 202-132v-90l290-173 289 173v91l201 131-182 146 182 146z m-307 130l207-135-131-105-210 129 134 111z m22-276l-206-127-206 127 206 127 206-127z m-597 141l208 135 133-111-210-129-131 105z m0-282l131 105 210-129-133-111-208 135z m623-193l-231-138-231 137v19l51-33 179 149 180-149 52 34v-19z m159 193l-207-135-134 111 210 129 131-105z" horiz-adv-x="1000" />

<glyph glyph-name="email" unicode="&#xe852;" d="M0 732v-764h1000v764h-1000z m500-459l-406 401h813l-407-401z m-161 76l-280-275v552l280-277z m41-41l120-118 117 116 282-279h-804l285 281z m279 39l282 278v-557l-282 279z" horiz-adv-x="1000" />

<glyph glyph-name="crown" unicode="&#xe853;" d="M743 453l-240 393-248-393-265 226 103-770h815l102 769-267-225z m-599-485l-8 59h728l-8-59h-712z m728 117h-744l-59 450 199-171 234 370 226-370 204 171-60-450z" horiz-adv-x="1000" />

<glyph glyph-name="dribbble" unicode="&#xe854;" d="M500 850c-276 0-500-224-500-500s224-500 500-500 500 224 500 500-224 500-500 500z m441-507c-122 27-229 25-322 5-15 37-31 75-50 114 99 38 194 93 268 172 65-76 104-176 104-284 0-2 0-5 0-7z m-145 334c-69-74-159-126-253-161-45 86-100 174-166 257 39 12 80 18 123 18 114 0 217-43 296-114z m-477 75c67-82 122-170 167-256-175-54-351-60-419-61 28 142 124 259 252 317z m-260-402c0 9 1 18 1 26 4 0 8 0 13 0 76 0 259 8 440 66 17-37 34-73 48-109-212-64-337-217-383-283-74 78-119 184-119 300z m162-341c35 53 153 207 362 268 56-152 82-279 92-332-54-23-113-36-175-36-106 0-203 37-279 100z m508-35c-11 62-37 179-88 318 85 16 183 17 295-9-20-131-98-243-207-309z" horiz-adv-x="1000" />

<glyph glyph-name="direction-alt" unicode="&#xe855;" d="M529 497h277l114 151-115 143h-276v59h-58v-59h-353v-294h353v-118h-276l-115-143 114-151h277v-235h58v235h353v294h-353v118z m-352 235h600l68-85-69-91h-599v176z m647-588h-600l-69 91 68 86h601v-177z" horiz-adv-x="1000" />

<glyph glyph-name="dashboard" unicode="&#xe856;" d="M1000 174v-30h-363v59h303c-6 100-46 190-108 261l-47-48-42 42 47 47c-71 62-161 102-261 108v-175h-58v175c-100-6-190-46-261-108l47-47-42-41-47 47c-62-71-102-161-108-261h304v-59h-364v30c0 275 224 500 500 500s500-225 500-500z m-382 0c0-65-53-118-118-118s-118 53-118 118c0 37 19 71 47 92l-123 214 51 29 126-219c6 0 11 1 17 1 65 0 118-53 118-117z m-59 0c0 32-27 58-59 58s-59-26-59-58 27-59 59-59 59 26 59 59z" horiz-adv-x="1000" />

<glyph glyph-name="css3" unicode="&#xe857;" d="M971 776l-142-710-428-142-372 142 38 190h158l-15-78 225-86 258 86 36 180h-643l31 158h644l20 102h-643l31 158h802z" horiz-adv-x="1000" />

<glyph glyph-name="desktop" unicode="&#xe858;" d="M118 203h764v471h-764v-471z m59 412h647v-353h-647v353z m735 176h-824c-48 0-88-37-88-83v-598c0-46 40-83 88-83h824c48 0 88 37 88 83v598c0 46-40 83-88 83z m29-681c0-14-13-25-29-25h-824c-16 0-29 11-29 25v598c0 13 13 24 29 24h824c16 0 29-11 29-24v-598z m-647-142h412v-59h-412v59z" horiz-adv-x="1000" />

<glyph glyph-name="exchange-vertical" unicode="&#xe859;" d="M353-35v414h-59v-414l-214 215-42-42 286-286 285 286-41 42-215-215z m-30-29h1l0 0-1 0z m597 584l-214 215v-417h-59v417l-214-215-42 42 286 286 285-286-42-42z" horiz-adv-x="1000" />

<glyph glyph-name="envelope" unicode="&#xe85a;" d="M118 850v-1000h764v1000h-764z m158-235l-83 176h614l-83-176h-448z m-37-59h232v-529h-236l-58-69v731l62-133z m23-588h476l51-59h-578l51 59z m503 59h-236v529h232l63 133v-730l-59 68z" horiz-adv-x="1000" />

<glyph glyph-name="drupal" unicode="&#xe85b;" d="M504-121c-219 0-416 173-416 407 0 233 183 342 216 359 41 22 70 33 115 69 23 18 41 44 47 107 33-39 72-85 100-104 46-30 91-42 139-72 29-17 207-126 207-367 0-240-190-399-408-399z m321 389c-43 0-129-89-175-90-53-1-126 105-232 104-84 0-150-67-151-138-1-39 12-69 40-88 18-12 34-19 89-19 90 0 204 111 256 109 42-1 107-104 140-106 25-2 39 10 61 42 21 32 30 82 30 111 0 27-12 75-58 75z m-124-285c-18-14-59-30-117-30s-85 12-103 26c-3 2-2 2-7 2-6 0-9-3-14-6-4-4-7-13 0-20 40-36 106-33 155-28 49 4 91 33 95 38 7 6 5 11 4 15-1 4-4 9-13 3z m-29 92c-11 6-26 8-41 8-14 0-22 1-38-6-15-6-31-21-41-30-11-9-12-16-7-23 6-7 11-3 26 10 16 12 26 23 58 23s37-11 43-23c7-12 7-14 14-10 7 3 11 9 7 18-4 9-10 25-21 33z" horiz-adv-x="1000" />

<glyph glyph-name="eye" unicode="&#xe85c;" d="M998 331c-76 193-276 322-498 322s-422-129-498-322c-3-6-3-14 0-21 76-192 276-322 498-322s422 130 498 322c3 7 3 14 0 21z m-498-284c-194 0-369 110-439 274 70 164 245 273 439 273s369-109 439-273c-70-164-245-274-439-274z m0 488c-118 0-214-96-214-214s96-215 214-215c118 0 214 96 214 215s-96 214-214 214z m0-370c-86 0-155 70-155 156s69 155 155 155c86 0 156-70 156-155s-70-156-156-156z m0 235c-44 0-80-35-80-79s36-80 80-80 80 36 80 80-36 79-80 79z m0-100c-12 0-21 9-21 21s9 21 21 21 21-10 21-21-9-21-21-21z" horiz-adv-x="1000" />

<glyph glyph-name="eraser" unicode="&#xe85d;" d="M791 603l-306 176c-40 24-97 9-120-32l-353-611c-25-42-10-96 32-121l187-107 257 1 335 573c25 43 10 97-32 121z m-337-635l-207-1-173 99c-14 8-19 26-11 40l162 281 354-205-125-214z m318 544l-163-279-355 204 162 281c5 9 15 14 25 14 5 0 10-1 15-3l306-177c14-8 18-26 10-40z m228-544v-59h-412v59h412z" horiz-adv-x="1000" />

<glyph glyph-name="export" unicode="&#xe85e;" d="M256 500l-42 41 286 294 286-294-42-41-215 220v-633h-58v633l-215-220z m685-181v-381c0-16-13-29-29-29h-824c-16 0-29 13-29 29v381h-59v-381c0-48 40-88 88-88h824c48 0 88 40 88 88v381h-59z" horiz-adv-x="1000" />

<glyph glyph-name="face-sad" unicode="&#xe85f;" d="M500 850c-276 0-500-224-500-500s224-500 500-500 500 224 500 500-224 500-500 500z m0-941c-243 0-441 198-441 441s198 441 441 441 441-198 441-441-198-441-441-441z m265 176c0-16-13-29-30-29s-29 13-29 29c0 114-92 206-206 206s-206-92-206-206c0-16-13-29-29-29s-30 13-30 29c0 146 119 265 265 265s265-119 265-265z m-500 442c0 32 26 58 59 58s58-26 58-58-26-59-58-59-59 26-59 59z m353 0c0 32 26 58 59 58s58-26 58-58-26-59-58-59-59 26-59 59z" horiz-adv-x="1000" />

<glyph glyph-name="face-smile" unicode="&#xe860;" d="M500 850c-276 0-500-224-500-500s224-500 500-500 500 224 500 500-224 500-500 500z m0-941c-243 0-441 198-441 441s198 441 441 441 441-198 441-441-198-441-441-441z m265 412c0-146-119-265-265-265s-265 119-265 265c0 16 14 29 30 29s29-13 29-29c0-114 93-206 206-206s206 92 206 206c0 16 13 29 29 29s30-13 30-29z m-500 206c0 32 26 58 59 58s58-26 58-58-26-59-58-59-59 26-59 59z m353 0c0 32 26 58 59 58s58-26 58-58-26-59-58-59-59 26-59 59z" horiz-adv-x="1000" />

<glyph glyph-name="facebook" unicode="&#xe861;" d="M733 522l-18-172h-138v-500h-207v500h-103v172h103v104c0 140 58 224 224 224h138v-172h-86c-65 0-69-25-69-69v-87h156z" horiz-adv-x="1000" />

<glyph glyph-name="file" unicode="&#xe862;" d="M569 850h-451v-1000h764v688l-313 312z m19-102l193-192h-193v192z m-411-839v882h352v-294h295v-588h-647z" horiz-adv-x="1000" />

<glyph glyph-name="files" unicode="&#xe863;" d="M735 850h-382v-118h59v59h294v-235h235v-471h-236v-58h295v577l-265 246z m30-108l137-127h-137v127z m-765-68v-824h647v578l-265 246h-382z m412-108l137-128h-137v128z m-353-657v706h294v-236h235v-470h-529z" horiz-adv-x="1000" />

<glyph glyph-name="filter" unicode="&#xe864;" d="M32 850l380-543v-457h176v457l380 543h-936z m497-524v-417h-58v417l-326 465h710l-326-465z" horiz-adv-x="1000" />

<glyph glyph-name="flag" unicode="&#xe865;" d="M765 261v544l-699-272 699-272z m-59 86l-478 186 478 186v-372z m176 503v-1000h-58v1000h58z" horiz-adv-x="1000" />

<glyph glyph-name="flag-alt" unicode="&#xe866;" d="M882 850v-1000h-58v1000h58z m-792-57h675v-471h-676l171 233-170 238z m616-59h-502l129-180-128-173h501v353z" horiz-adv-x="1000" />

<glyph glyph-name="flag-alt-2" unicode="&#xe867;" d="M882 850v-1000h-58v1000h58z m-589-59h471v-470h-293v-118h-412v471h234v117z m119-470h-118v294h-176v-353h294v59z m-60 411v-58h1v-295h352v353h-353z" horiz-adv-x="1000" />

<glyph glyph-name="flickr" unicode="&#xe868;" d="M429 350c0-118-96-214-214-214-119 0-215 96-215 214s96 215 215 215c118 0 214-96 214-215z m571 0c0-118-96-214-215-214-118 0-214 96-214 214s96 215 214 215c119 0 215-96 215-215z m-59 0c0 86-70 156-156 156-85 0-155-70-155-156s70-156 155-156c86 0 156 70 156 156z" horiz-adv-x="1000" />

<glyph glyph-name="flickr-alt" unicode="&#xe869;" d="M500 821c-260 0-471-211-471-471 0-260 211-471 471-471s471 211 471 471c0 260-211 471-471 471z m-180-617c-82 0-149 66-149 148 0 82 67 148 149 148s148-66 148-148c0-82-67-148-148-148z m371 0c-82 0-148 66-148 148 0 82 66 148 148 148s148-66 148-148c0-82-66-148-148-148z" horiz-adv-x="1000" />

<glyph glyph-name="folder" unicode="&#xe86a;" d="M471 615l-116 117h-355v-882h1000v765h-529z m-140 59l115-118h495v-119l-882 1v236h272z m-272-765v470l882-1v-469h-882z" horiz-adv-x="1000" />

<glyph glyph-name="fullscreen" unicode="&#xe86b;" d="M941 182l0-273-273 0 0 59 173 0-341 340-341-340 173 0 0-59-273 0 0 273 59 0 0-173 340 341-340 341 0-173-59 0 0 273 273 0 0-59-173 0 341-340 341 340-173 0 0 59 273 0 0-273-59 0 0 173-340-341 340-341 0 173 59 0z" horiz-adv-x="1000" />

<glyph glyph-name="gallery" unicode="&#xe86c;" d="M765 262v588h-765v-765h765v177z m-706 529h647v-470h-44l-151 195-68-72-133 229-210-352h-41v470z m528-470h-419l142 236 121-210 75 79 81-105z m-528-177v118h647v-118h-647z m941 530v-765h-765v117h59v-58h647v647h-117v59h176z" horiz-adv-x="1000" />

<glyph glyph-name="game" unicode="&#xe86d;" d="M529 615v176h-58v-176c-210-6-471-75-471-146v-414c0-49 40-88 88-88h106l117 231c33-6 101-16 187-16 87 0 158 10 193 16l112-231h109c48 0 88 39 88 88v414c0 71-261 140-471 146z m412-560c0-16-13-29-29-29h-72l-116 239-23-5c-1 0-89-19-203-19-115 0-195 19-196 19l-23 5-121-239h-70c-16 0-29 13-29 29v407c29 26 199 89 412 95v-1h58v1c213-6 383-69 412-95v-407z m-647 382h59v-59h-59v-60h-59v60h-58v59h58v60h59v-60z m441-118c49 0 89 40 89 89s-40 88-89 88-88-40-88-88 40-89 88-89z m0 118c17 0 30-13 30-29s-13-30-30-30-29 14-29 30 13 29 29 29z" horiz-adv-x="1000" />

<glyph glyph-name="gift" unicode="&#xe86e;" d="M461 520l-2-12 40 5c0 0 1 1 2 1l37-5-2 11c64 11 195 42 269 106 29 25 45 58 45 94s-16 69-45 94c-55 48-150 48-206 0-48-41-80-101-100-154-21 53-53 113-101 154-55 47-150 47-206 0-29-25-45-58-45-94 0-36 16-69 45-94 75-64 205-94 269-106z m177 250c17 14 40 22 64 22 25 0 48-8 65-22 16-14 25-31 25-50 0-18-9-36-25-49-61-52-172-80-233-92 14 52 46 141 104 191z m-408-1c17 15 40 23 65 23 25 0 48-8 65-23 57-49 89-137 103-189-61 11-172 39-233 91-15 13-24 31-24 49 0 18 9 36 24 49z m770-272h-1000v-235h59v-412h882v412h59v235z m-590-59h177l63-343-97 40-77-71-66 374z m-351 0h292l20-117h-312v117z m823-529h-764v353h264l55-315 128 119 162-67-48 263h203v-353z m59 412h-273l-21 117h294v-117z" horiz-adv-x="1000" />

<glyph glyph-name="github" unicode="&#xe86f;" d="M769 196c0-44-23-115-77-115-54 0-77 71-77 115 0 44 23 116 77 116 54 0 77-72 77-116z m-461 116c-54 0-77-72-77-116 0-44 23-115 77-115 54 0 77 71 77 115 0 44-23 116-77 116z m692-10c0-67-7-138-37-199-79-161-297-176-453-176-159 0-390 14-473 176-30 61-37 132-37 199 0 88 24 171 82 238-11 33-16 68-16 102 0 45 10 90 30 131 95 0 156-41 228-98 61 15 123 21 186 21 56 0 113-6 168-19 72 56 132 96 226 96 20-41 31-86 31-131 0-34-6-68-17-101 58-68 82-151 82-239z m-135-106c0 92-55 173-153 173-40 0-78-7-118-12-31-5-62-7-94-7s-63 2-94 7c-39 5-78 12-117 12-98 0-154-81-154-173 0-184 168-212 315-212h101c146 0 314 28 314 212z" horiz-adv-x="1000" />

<glyph glyph-name="google" unicode="&#xe870;" d="M1000 696v-77h-154v-154h-77v154h-154v77h154v154h77v-154h154z m-389-598c0-69-33-125-84-169-69-60-163-79-252-79-113 0-275 48-275 188 0 28 10 55 22 81 54 108 221 136 328 139-19 25-38 55-38 89 0 20 7 33 13 52-14-2-28-3-42-3-116 0-217 86-217 206 0 115 88 212 197 236 37 8 75 12 113 12h262l-81-47h-81c60-38 90-110 90-178 0-159-135-171-135-250 0-78 180-108 180-277z m-157 467c0 91-49 242-160 242-79 0-117-70-117-141 0-91 60-234 167-234 82 0 110 59 110 133z m73-518c0 84-79 131-141 173-10 1-19 1-30 1-98 0-245-31-245-156 0-115 130-160 226-160 90 0 190 36 190 142z" horiz-adv-x="1000" />

<glyph glyph-name="hand-drag" unicode="&#xe871;" d="M821 521v-344c0-46-22-73-39-93-13-17-21-26-21-41v-105c0-16-13-29-29-29s-29 13-29 29v105c0 37 19 60 34 78 14 18 26 31 26 56v344c0 18-16 35-33 35-19 0-23-3-23-3-4-5-4-33-4-56 0-11 0-24 0-37 0-16-13-28-30-29-16 0-29 13-29 29v125c0 18-13 32-30 32-16 0-28-12-29-29v-118c0-16-14-29-30-29s-29 13-29 29v0 118c0 0 0 1 0 1v45c0 4-1 38-28 38-27 0-31-24-31-38v-41c0-2 0-3-1-5v-152c0-17-13-30-29-30s-29 13-29 30v0 158c-3 11-11 22-28 22-17 0-31-15-31-33v-197c0-1 0-1 0-1v-65c0-16-13-29-30-29s-29 13-29 29v49c-10 4-25 7-34 5-7-1-14-8-18-16-4-7-8-20-1-38l100-218c1-2 2-4 2-7 3-16 19-26 35-25 8 1 16-2 23-7 6-6 9-14 9-22v-103c0-16-13-29-29-29s-30 13-30 29v76c-31 8-57 33-65 66l-98 216c-13 29-13 62 1 89 13 24 35 42 59 47 13 2 29 1 46-2v42c0 1 0 2 0 2v109c0 51 41 92 90 92 12 0 23-2 33-6 12 38 44 62 85 62 39 0 70-25 81-63 11 5 22 7 34 7 41 0 74-26 86-63 10 3 21 3 31 3 50 0 91-43 91-94z" horiz-adv-x="1000" />

<glyph glyph-name="hand-open" unicode="&#xe872;" d="M897 531l-70-474c-7-36-23-52-35-64-11-11-18-18-18-54v-60c0-16-14-29-30-29s-29 13-29 29v60c0 56 16 77 36 96 9 9 14 15 18 32l69 473c2 7 3 31-16 34-6 1-12 0-16-3-5-5-9-13-11-23l-29-195c-2-10-8-18-17-22s-21-3-29 3c-3-1-8 1-13 4-9 6-14 16-13 27l17 310c1 17-10 30-26 32-7 0-15-2-20-7-6-4-9-11-10-19l-27-281c-2-16-14-27-32-26-4 0-9 0-14 0-16 1-29 13-29 29l-7 360c0 16-12 28-27 28-15 0-28-12-28-27l-7-388c0-11-6-21-16-26-4-2-8-3-11-5-9-5-19-5-28-1-9 5-15 14-16 24l-30 313c-1 8-4 14-10 19-5 5-13 7-20 7-7-1-14-4-19-10-5-6-7-13-6-20l29-418c1-13-6-25-18-29-12-5-26-1-34 9l-91 115c-12 20-33 25-50 16-8-5-13-12-16-21-2-9-1-18 4-26l207-358c5-9 13-14 22-16 13-4 22-15 22-29v-41c0-16-13-29-29-29s-29 13-29 29v21c-15 8-28 20-36 35l-208 358c-13 22-16 47-10 71 7 24 22 44 44 57 45 25 102 10 127-34l30-38-23 323c-2 22 5 45 20 63 15 17 36 28 59 30 23 2 45-5 63-20 9-7 16-16 21-25l1 44c0 47 38 86 86 86s86-39 86-86l1-44c5 9 12 18 21 25 18 15 40 22 63 20 48-4 83-46 79-94l-3-57c2 1 3 2 5 4 17 12 37 17 60 14 46-6 73-48 66-101z" horiz-adv-x="1000" />

<glyph glyph-name="hand-point-down" unicode="&#xe873;" d="M809 185c-56-34-100 10-117 27l-15 16v-288c0-50-40-90-88-90s-89 40-89 90v137c-9-3-20-5-30-5-47 0-85 37-88 84-10-4-20-6-30-6-49 0-89 41-89 91v8c-8-3-17-5-27-5-49 0-89 41-89 91v187c0 39 19 91 36 137 11 30 23 64 23 77v51c0 16 13 29 29 29s30-13 30-29v-51c0-23-12-56-27-97-15-41-32-88-32-117v-187c0-18 14-32 30-32 17 0 27 15 28 31 0 16 13 28 29 28 0 0 0 0 0 0 16 0 29-13 29-29v-92c0-18 14-32 30-32 16 0 29 13 30 30 1 15 13 27 30 27 16 0 28-13 28-29v-75c0-17 14-31 30-31 15 0 28 11 30 27 2 15 16 27 31 25 16-1 28-14 28-29v-214c0-17 13-31 30-31s29 14 29 31v364c0 12 8 23 19 27 11 5 24 2 32-7l66-71c27-28 36-22 44-17 14 8 19 28 11 43l-193 418c-4 5-10 10-18 12-13 3-22 15-22 29v49c0 16 13 29 29 29s30-13 30-29v-30c13-8 25-19 33-33l193-418c23-41 9-96-33-121z" horiz-adv-x="1000" />

<glyph glyph-name="hand-point-left" unicode="&#xe874;" d="M966 56c0-16-13-29-29-29h-51c-13 0-47-13-77-24-46-16-98-35-137-35h-187c-50 0-91 40-91 89 0 9 2 19 5 27h-8c-50 0-91 40-91 89 0 10 2 20 6 29-47 4-84 42-84 88 0 11 2 21 5 31h-137c-49 0-90 39-90 88 0 49 41 89 90 89h288l-15 14c-18 18-62 61-28 118 25 42 80 56 123 32l413-191c16-9 28-21 36-35h30c16 0 29-13 29-29s-13-29-29-29h-49c-14 0-26 9-29 22-2 8-7 14-14 18l-414 192c-17 9-37 4-45-10-5-9-10-17 17-45l71-65c9-8 12-21 7-32s-15-19-27-19h-364c-17 0-31-13-31-30 0-16 14-29 31-29h214c15 0 28-12 29-28 1-15-10-29-25-31-15-2-27-15-27-31 0-16 14-29 31-29h75c16 0 29-13 29-29 1-16-12-29-27-30-17-1-30-14-30-29 0-17 14-30 32-30h92c16 0 29-13 29-29s-12-29-28-30c-16 0-31-10-31-27 0-17 15-30 32-30h187c29 0 76 17 117 32 41 15 74 26 97 26h51c16 0 29-13 29-29z" horiz-adv-x="1000" />

<glyph glyph-name="hand-point-right" unicode="&#xe875;" d="M995 409c0-49-40-88-90-88h-137c4-10 6-20 6-31 0-46-37-84-84-88 3-9 5-19 5-29 0-49-40-89-90-89h-8c3-8 4-18 4-27 0-49-40-89-90-89h-187c-40 0-92 19-138 35-30 11-63 24-77 24h-50c-16 0-30 13-30 29s14 29 30 29h50c24 0 56-11 97-26 42-15 89-32 118-32h187c17 0 31 13 31 30 0 17-15 27-30 27-16 1-29 14-28 30s13 29 29 29h92c17 0 31 13 31 30 0 15-13 28-29 29-16 1-28 15-28 30 1 16 14 29 30 29h74c18 0 32 13 32 29 0 16-12 29-27 31-16 2-27 16-26 31 1 16 14 28 30 28h213c17 0 32 13 32 29 0 17-15 30-32 30h-363c-13 0-23 7-28 19s-1 24 8 32l71 66c27 27 22 35 17 44-9 14-28 19-44 11l-417-194c-6-3-11-9-13-17-3-13-15-22-28-22h-49c-16 0-30 13-30 29s14 29 30 29h29c8 14 20 26 34 34l417 193c41 23 96 9 121-33 34-57-10-100-26-117l-17-15h288c50 0 90-40 90-89z" horiz-adv-x="1000" />

<glyph glyph-name="hand-point-up" unicode="&#xe876;" d="M853 366v-188c0-39-19-91-36-137-11-30-23-64-23-77v-51c0-16-13-29-29-29s-30 13-30 29v51c0 23 12 56 27 97 15 41 32 88 32 117v188c0 17-14 31-30 31-17 0-27-15-27-31-1-16-13-29-30-28-16 0-29 14-29 30v91c0 18-14 32-30 32-15 0-28-13-29-29-1-16-14-29-31-28-16 1-28 14-28 29v75c0 17-13 31-30 31-15 0-28-11-30-27-2-15-16-27-31-25-16 1-28 14-28 29v214c0 17-13 31-30 31s-29-14-29-31v-364c0-12-8-23-19-27-11-5-24-2-32 7l-66 72c-27 27-36 22-44 16-14-8-19-28-11-43l194-418c3-5 9-10 17-12 13-4 22-15 22-29v-49c0-16-13-29-29-29s-30 13-30 29v30c-13 8-25 19-33 33l-193 418c-23 41-9 96 33 121 57 34 100-10 117-27l15-16v288c0 50 40 90 88 90s89-40 89-90v-137c10 3 20 5 30 5 47 0 85-37 88-83 10 3 20 5 30 5 49 0 89-41 89-91v-8c8 3 17 5 27 5 49 0 89-41 89-90z" horiz-adv-x="1000" />

<glyph glyph-name="hand-stop" unicode="&#xe877;" d="M824 591v-427c0-50-20-110-38-162-10-32-21-65-21-79v-44c0-16-13-29-30-29s-29 13-29 29v44c0 24 11 56 24 97 16 46 35 103 35 144v427c0 16-12 28-28 28-17 0-30-12-31-27 0 0 0 0 0-1l0-227c0-16-13-29-29-29s-30 13-30 29l0 241c0 0 0 0 0 1v82c0 14-8 29-26 29-16 0-31-13-32-27 0-1-1-1-1-2v-264c0-16-13-29-29-29s-30 13-30 29v288c0 2 1 3 1 4v47c0 15-14 28-31 28-16 0-29-12-29-28v-51c0-1 1-2 1-3v0-288c0-16-14-29-30-29s-29 13-29 29v0 270c0 1 0 1 0 1-2 14-15 25-30 25-16 0-30-13-30-29v-335c0-13-7-23-18-28-12-4-25-1-33 8l-66 74c-23 27-38 18-44 15-7-4-12-10-14-18-1-7 0-14 3-21l194-412c3-4 9-9 17-11 14-3 23-15 23-29v-52c0-16-13-29-30-29s-29 13-29 29v32c-14 8-25 19-33 33l-194 412c-10 18-13 41-7 64 6 22 20 41 41 53 40 23 84 12 118-27l14-16v258c0 48 39 88 88 88 10 0 20-2 30-5 4 44 41 79 87 79 47 0 86-35 90-80 10 3 21 6 32 6 48 0 85-39 85-88v-15c10 3 20 5 31 5 48 0 87-38 87-87z" horiz-adv-x="1000" />

<glyph glyph-name="harddrive" unicode="&#xe878;" d="M831 674h-662l-169-257v-391h1000v387l-169 261z m-630-59h598l115-177h-829l116 177z m-142-530v294h882v-294h-882z m735 235c-48 0-88-39-88-88s40-88 88-88 88 40 88 88-39 88-88 88z m0-117c-16 0-29 13-29 29s13 30 29 30 30-14 30-30-14-29-30-29z" horiz-adv-x="1000" />

<glyph glyph-name="harddrives" unicode="&#xe879;" d="M794 115c-48 0-88-40-88-88s40-89 88-89 88 40 88 89-39 88-88 88z m0-118c-16 0-29 13-29 30s13 29 29 29 30-13 30-29-14-30-30-30z m206 668l-172 185h-656l-172-182v-378h55l-55-69v-371h1000v368l-61 72h61v375z m-803 126h605l110-117h-826l111 117z m-138-882v235h882v-235h-882z m877 294h-875l69 87h731l75-87z m-877 146v266h882v-266h-882z m735 207c-48 0-88-40-88-88 0-49 40-88 88-88s88 39 88 88c0 48-39 88-88 88z m0-118c-16 0-29 14-29 30s13 29 29 29 30-13 30-29-14-30-30-30z" horiz-adv-x="1000" />

<glyph glyph-name="headphone" unicode="&#xe87a;" d="M940 374c-11 265-204 476-440 476s-429-211-440-476c-35-11-60-44-60-83v-235c0-49 39-88 88-88h89v59h58v294h-58v58h-58c13 230 179 412 381 412s368-182 381-412h-57v-58h-59v-294h59v-59h88c49 0 88 39 88 88v235c0 39-25 72-60 83z m-822-347h-30c-16 0-29 13-29 29v235c0 16 13 30 29 30h30v-294z m823 29c0-16-13-29-29-29h-30v294h30c16 0 29-14 29-30v-235z" horiz-adv-x="1000" />

<glyph glyph-name="headphone-alt" unicode="&#xe87b;" d="M922 496c-57 209-228 354-422 354-194 0-365-145-422-354-44-5-78-42-78-87v-235c0-37 23-69 54-82 12-103 98-183 204-183h159c12-34 45-59 83-59h177c48 0 88 40 88 88s-40 89-88 89h-177c-38 0-71-25-83-59h-159c-71 0-130 50-144 117h63v59h58v294h-58v59h-36c54 174 197 294 359 294 163 0 306-120 359-294h-35v-59h-59v-294h59v-59h88c49 0 88 40 88 89v235c0 45-34 82-78 87z m-422-528h177c16 0 29-14 29-30s-13-29-29-29h-177c-16 0-29 13-29 29s13 30 29 30z m-382 176h-30c-16 0-29 13-29 30v235c0 16 13 29 29 29h30v-294z m823 30c0-17-13-30-29-30h-30v294h30c16 0 29-13 29-29v-235z" horiz-adv-x="1000" />

<glyph glyph-name="heart" unicode="&#xe87c;" d="M735 811c-102 0-191-58-235-143-44 85-133 143-235 143-146 0-265-118-265-264 0-21 3-41 9-66l7-21c84-256 450-552 466-565l18-15 18 15c17 14 408 330 467 566l6 21c6 24 9 45 9 65 0 146-119 264-265 264z m200-313l-7-21c-48-191-350-455-428-521-75 64-360 314-428 522l-6 19c-5 18-7 34-7 50 0 113 92 206 206 206s206-93 206-206v-15h58v15c0 113 93 206 206 206s206-93 206-206c0-16-2-31-6-49z" horiz-adv-x="1000" />

<glyph glyph-name="heart-broken" unicode="&#xe87d;" d="M9 481c-6 25-9 45-9 66 0 146 119 264 265 264 102 0 191-58 235-143 44 85 133 143 235 143 146 0 265-118 265-264 0-20-3-41-9-65l-6-21c-5-20-14-43-27-71l-53 25c11 25 19 44 23 62l7 21c4 18 6 33 6 49 0 113-92 206-206 206s-206-93-206-206h-58c0 113-93 206-206 206s-206-93-206-206c0-16 2-32 7-50l6-19c5-17 13-36 26-61l-53-26c-14 27-23 49-29 69l-7 21z m491-526c-47 37-182 149-293 295l-47-35c141-187 315-315 323-321l17-12 18 12c7 6 187 140 325 320l-46 36c-109-141-249-257-297-295z m334 459l-167-118-166 118-167-118-167 118-184-130 34-48 150 106 167-118 167 118 166-118 167 118 149-106 34 48-183 130z" horiz-adv-x="1000" />

<glyph glyph-name="help" unicode="&#xe87e;" d="M607-22c0-53-43-96-96-96-53 0-96 43-96 96 0 53 43 96 96 96 53 0 96-43 96-96z m79 732c-30 38-85 84-175 84-241 0-250-221-250-224l59-1c0 7 6 166 191 166 67 0 107-33 129-61 33-41 41-89 37-108-17-72-59-110-104-151-55-49-112-100-112-209h59c0 83 40 119 92 166 47 42 101 90 122 181 9 37-5 103-48 157z" horiz-adv-x="1000" />

<glyph glyph-name="help-alt" unicode="&#xe87f;" d="M500 850c-276 0-500-224-500-500s224-500 500-500 500 224 500 500-224 500-500 500z m0-941c-243 0-441 198-441 441s198 441 441 441 441-198 441-441-198-441-441-441z m68 222c0-33-27-60-60-60-34 0-61 27-61 60 0 34 27 61 61 61 33 0 60-27 60-61z m59 471c27-33 40-78 33-109-15-60-50-92-81-120-32-29-55-50-55-97h-59c0 74 40 109 75 141 27 24 52 47 62 89 2 9-2 36-21 60-18 22-43 34-73 34-105 0-110-85-111-95l-58 2c1 53 38 152 169 152 48 0 90-20 119-57z" horiz-adv-x="1000" />

<glyph glyph-name="home" unicode="&#xe880;" d="M824-91h-177v353h-294v-353h-176v529h-59v-588h764v588h-58v-529z m-412 0v294h176v-294h-176z m576 560l-35-47-453 333-453-333-35 47 488 359 488-359z" horiz-adv-x="1000" />

<glyph glyph-name="html5" unicode="&#xe881;" d="M914 821l-75-846-340-96-338 96-75 846h828z m-154-173h-520l28-314h360l-13-134-116-32-115 32-8 82h-103l13-164 213-58h2v0l211 58 30 320h-379l-9 107h397l9 103z" horiz-adv-x="1000" />

<glyph glyph-name="hummer" unicode="&#xe882;" d="M529 615h331l-212 235h-413v-235h236v-219h-67v-546h192v546h-67v219z m-235 176h328l106-117h-434v117z m243-882h-74v428h74v-428z" horiz-adv-x="1000" />

<glyph glyph-name="id-badge" unicode="&#xe883;" d="M0 674v-706h1000v706h-1000z m941-647h-882v588h882v-588z m-790 28l-59 2c2 84 82 156 195 177v19c-15 15-25 36-32 55-10 6-18 17-24 30-11 24-9 48 4 63 0 4-1 8-1 12l0 11c0 32-1 84 55 93 11 20 28 37 69 39 66 2 113-22 129-68 5-16 0-28-3-38-4-9-7-17-5-33 0-6 0-13 0-18 10-14 12-36 5-58-6-16-15-28-26-36-6-16-16-35-28-49v-22c112-22 189-93 191-177l-58-2c-2 60-72 113-167 124l-25 4v100l11 9c7 5 16 19 25 45l8 20 4 37c1 6 2 12 1 16-3 30 4 50 9 61 0 1 0 2 0 2-12 23-51 24-69 24-16-1-17-3-20-9-4-8-14-26-38-28-5-1-7-2-7-2-2-3-2-21-2-33l0-12c0-8 1-17 2-26l4-33 7-2 0-14c9-28 20-43 27-47l12-9v-99l-26-3c-94-11-167-65-168-125z m731 324h-294v59h294v-59z m-58-117h-236v59h236v-59z" horiz-adv-x="1000" />

<glyph glyph-name="image" unicode="&#xe884;" d="M59 791v-882h882v882h-882z m823-823h-764v117h764v-117z m-764 176v588h764v-588h-764z m718 108l-41-42-143 138-91-98-146 259-200-292-49 33 254 371 153-272 77 83 186-180z" horiz-adv-x="1000" />

<glyph glyph-name="import" unicode="&#xe885;" d="M500 46l-285 284 41 41 215-213v635h58v-635l215 213 41-41-285-284z m441 273v-381c0-16-13-29-29-29h-824c-16 0-29 13-29 29v381h-59v-381c0-48 40-88 88-88h824c48 0 88 40 88 88v381h-59z" horiz-adv-x="1000" />

<glyph glyph-name="infinite" unicode="&#xe886;" d="M1000 379c0-129-105-235-235-235-71 0-136 31-181 86l0 0-1 1c-1 0-2 1-2 2l0 0-214 264c-33 37-81 59-132 59-97 0-176-79-176-177 0-97 79-176 176-176 54 0 104 24 138 66l1 0 48 59 45-37-48-60-1 1c-44-56-111-88-183-88-129 0-235 106-235 235 0 130 106 236 235 236 66 0 129-28 173-77l1 1 2-3 218-269c34-40 83-64 136-64 97 0 176 79 176 176 0 98-79 177-176 177-50 0-97-21-131-58l-56-69-45 37 55 69 0 0c45 51 109 80 177 80 130 0 235-106 235-236z" horiz-adv-x="1000" />

<glyph glyph-name="info" unicode="&#xe887;" d="M635 10v-59h-270v59h106v437h-103v59h161v-496h106z m-165 602c50 0 90 40 90 90 0 50-40 90-90 90-50 0-90-40-90-90 0-50 40-90 90-90z" horiz-adv-x="1000" />

<glyph glyph-name="info-alt" unicode="&#xe888;" d="M500 850c-276 0-500-224-500-500s224-500 500-500 500 224 500 500-224 500-500 500z m0-941c-243 0-441 198-441 441s198 441 441 441 441-198 441-441-198-441-441-441z m29 213h58v-58h-174v58h58v260h-56v59h114v-319z m-106 435c0 32 26 58 58 58s58-26 58-58c0-32-26-58-58-58s-58 26-58 58z" horiz-adv-x="1000" />

<glyph glyph-name="ink-pen" unicode="&#xe889;" d="M177 850v-382l321-559 326 559v382h-647z m321-823h0l0-1 0 1z m2 470c-32 0-59 27-59 59s27 59 59 59 59-27 59-59-26-59-59-59z m265-13l-236-404v362c51 14 89 59 89 114 0 65-53 118-118 118s-118-53-118-118c0-55 38-100 89-114v-367l-236 409v307h530v-307z" horiz-adv-x="1000" />

<glyph glyph-name="instagram" unicode="&#xe88a;" d="M765 850h-530c-129 0-235-106-235-235v-530c0-129 106-235 235-235h530c129 0 235 106 235 235v530c0 129-106 235-235 235z m176-765c0-97-79-176-176-176h-530c-97 0-176 79-176 176v353h189c-17-36-27-75-27-117 0-154 125-280 279-280s279 126 279 280c0 42-10 81-26 117h188v-353z m-220 236c0-122-99-221-221-221s-221 99-221 221 99 220 221 220 221-99 221-220z m-6 176c-51 62-128 103-215 103s-163-41-215-103h-226v118c0 97 79 176 176 176h530c97 0 176-79 176-176v-118h-226z m135 193v-76c0-18-14-32-32-32h-80c-18 0-32 14-32 32v76c0 18 14 32 32 32h80c18 0 32-14 32-32z" horiz-adv-x="1000" />

<glyph glyph-name="italic" unicode="&#xe88b;" d="M700 732l-335-764h47v-59h-177v59h66l334 764h-47v58h177v-58h-65z" horiz-adv-x="1000" />

<glyph glyph-name="joomla" unicode="&#xe88c;" d="M587 144l-92-94-19-18c-54-53-129-72-198-55-13-56-63-98-123-98-69 0-126 57-126 127 0 59 42 109 97 122-17 69 1 145 55 199l7 8 93-93-7-7c-31-30-30-79 0-110 30-30 79-30 109 0l18 19 93 93 99 98 92-93-98-98z m-103 508l-94-93-7 7c-30 30-79 30-109 0-30-30-30-79 0-109l209-209-93-93-98 98-93 93-18 18c-57 56-74 136-52 208-57 12-98 62-98 122 0 70 56 127 125 127 63 0 115-46 125-106 68 16 142-3 195-55l8-8z m376-83c21-70 3-149-53-205l-7-7-93 93 8 7c30 30 30 79 0 109-30 30-80 30-110 0l-209-209-93 93 98 98 94 93 17 18c56 56 136 74 207 53 8 61 61 109 125 109 69 0 125-57 125-127 0-63-47-116-109-125z m-15-690c-61 0-112 44-124 101-71-22-152-4-209 52l-6 7 92 94 7-8c30-30 80-30 110 0 30 30 30 79 0 109l-19 19-191 191 93 93 191-191 18-19c53-53 72-128 55-197 61-8 109-61 109-124 0-70-57-127-126-127z" horiz-adv-x="1000" />

<glyph glyph-name="jsfiddle" unicode="&#xe88d;" d="M971 211c0-101-84-183-186-183-3 0-6 1-10 1h-559c-103 6-187 84-187 186 0 69 38 129 93 161-3 12-5 25-5 38 0 70 57 127 129 127 29 0 57-10 79-26 45 92 141 157 252 157 155 0 280-124 280-276 0-6 0-11 0-17 66-27 114-92 114-168z m-592-75c45 0 77 14 110 45-13 17-28 33-42 50-19-19-39-30-66-30-33 0-61 21-61 55 0 34 28 56 60 56 101 0 123-177 270-177 72 0 132 45 132 121 0 76-61 121-133 121-45 0-79-13-111-45 15-16 28-33 43-50 18 18 39 30 65 30 30 0 60-22 60-54 0-35-25-58-60-58-98 0-124 177-267 177-71 0-134-44-134-120 0-77 61-121 134-121z" horiz-adv-x="1000" />

<glyph glyph-name="key" unicode="&#xe88e;" d="M871 480l42 41-102 102 44 44-41 42-479-477c-29 20-63 32-100 32-98 0-177-80-177-177s79-176 177-176 176 79 176 176c0 39-13 75-34 104l309 308 103-102 41 41-102 103 41 41 102-102z m-636-511c-65 0-118 53-118 118s53 118 118 118 117-53 117-118-53-118-117-118z" horiz-adv-x="1000" />

<glyph glyph-name="layers" unicode="&#xe88f;" d="M765 791h-765v-647h765v647z m-59-588h-647v529h647v-529z m294 353v-647h-765v178h59v-119h647v529h-118v59h177z" horiz-adv-x="1000" />

<glyph glyph-name="layers-alt" unicode="&#xe890;" d="M647 791h-647v-529h647v529z m-59-470h-529v411h529v-411z m236-236h-647v117h58v-58h530v412h-59v59h118v-530z m176 353v-529h-647v116h59v-57h529v411h-58v59h117z" horiz-adv-x="1000" />

<glyph glyph-name="layout" unicode="&#xe891;" d="M0 850v-1000h1000v1000h-1000z m59-353h529v-588h-529v588z m882-588h-294v588h294v-588z m-882 647v235h882v-235h-882z" horiz-adv-x="1000" />

<glyph glyph-name="layout-accordion-list" unicode="&#xe892;" d="M235 850v-529h765v529h-765z m706-471h-647v412h647v-412z m-941 295h177v176h-177v-176z m59 117h59v-59h-59v59z m176-706h765v177h-765v-177z m59 118h647v-59h-647v59z m-294-118h177v177h-177v-177z m59 118h59v-59h-59v59z m176-353h765v177h-765v-177z m59 118h647v-59h-647v59z m-294-118h177v177h-177v-177z m59 118h59v-59h-59v59z" horiz-adv-x="1000" />

<glyph glyph-name="layout-accordion-merged" unicode="&#xe893;" d="M0 850v-1000h1000v1000h-1000z m941-59v-529h-882v529h882z m0-588v-118h-882v118h882z m-882-294v118h882v-118h-882z" horiz-adv-x="1000" />

<glyph glyph-name="layout-accordion-separated" unicode="&#xe894;" d="M0 850v-176h1000v176h-1000z m941-118h-882v59h882v-59z m-941-647h1000v530h-1000v-530z m59 471h882v-412h-882v412z m-59-706h1000v177h-1000v-177z m59 118h882v-59h-882v59z" horiz-adv-x="1000" />

<glyph glyph-name="layout-column2" unicode="&#xe895;" d="M0-150h471v1000h-471v-1000z m59 941h353v-882h-353v882z m470 59v-1000h471v1000h-471z m412-941h-353v882h353v-882z" horiz-adv-x="1000" />

<glyph glyph-name="layout-column2-alt" unicode="&#xe896;" d="M0 850h471v-1000h-471v1000z m529 0v-1000h471v1000h-471z" horiz-adv-x="1000" />

<glyph glyph-name="layout-column3" unicode="&#xe897;" d="M0-150h294v1000h-294v-1000z m59 941h176v-882h-176v882z m294-941h294v1000h-294v-1000z m59 941h176v-882h-176v882z m294 59v-1000h294v1000h-294z m235-941h-176v882h176v-882z" horiz-adv-x="1000" />

<glyph glyph-name="layout-column3-alt" unicode="&#xe898;" d="M0 850h294v-1000h-294v1000z m353-1000h294v1000h-294v-1000z m353 1000v-1000h294v1000h-294z" horiz-adv-x="1000" />

<glyph glyph-name="layout-column4" unicode="&#xe899;" d="M59-150h176v1000h-176v-1000z m59 941h59v-882h-59v882z m176-941h177v1000h-177v-1000z m59 941h59v-882h-59v882z m176-941h177v1000h-177v-1000z m59 941h59v-882h-59v882z m177 59v-1000h176v1000h-176z m117-941h-58v882h58v-882z" horiz-adv-x="1000" />

<glyph glyph-name="layout-column4-alt" unicode="&#xe89a;" d="M59 850h176v-1000h-176v1000z m235-1000h177v1000h-177v-1000z m235 0h177v1000h-177v-1000z m236 1000v-1000h176v1000h-176z" horiz-adv-x="1000" />

<glyph glyph-name="layout-cta-btn-left" unicode="&#xe89b;" d="M882 438h-411v59h411v-59z m-411-117h294v58h-294v-58z m529 353v-589h-1000v589h1000z m-59-59h-882v-471h882v471z m-529-118h-294v-118h294v118z" horiz-adv-x="1000" />

<glyph glyph-name="layout-cta-btn-right" unicode="&#xe89c;" d="M529 438h-411v59h411v-59z m-294-117h294v58h-294v-58z m765 353v-589h-1000v589h1000z m-59-59h-882v-471h882v471z m-59-118h-294v-118h294v118z" horiz-adv-x="1000" />

<glyph glyph-name="layout-cta-center" unicode="&#xe89d;" d="M824 379h-647v59h647v-59z m176 295v-647h-1000v647h1000z m-59-59h-882v-530h882v530z m-567-412h252v118h-252v-118z" horiz-adv-x="1000" />

<glyph glyph-name="layout-cta-left" unicode="&#xe89e;" d="M0 674v-647h1000v647h-1000z m941-589h-882v530h882v-530z m-176 294h-588v59h588v-59z m-294-176h-294v118h294v-118z" horiz-adv-x="1000" />

<glyph glyph-name="layout-cta-right" unicode="&#xe89f;" d="M0 674v-647h1000v647h-1000z m941-589h-882v530h882v-530z m-117 294h-589v59h589v-59z m-295-58h295v-118h-295v118z" horiz-adv-x="1000" />

<glyph glyph-name="layout-grid2" unicode="&#xe8a0;" d="M0 438h412v412h-412v-412z m59 353h294v-294h-294v294z m470 59v-412h412v412h-412z m353-353h-294v294h294v-294z m-882-588h412v412h-412v-412z m59 353h294v-294h-294v294z m470-353h412v412h-412v-412z m59 353h294v-294h-294v294z" horiz-adv-x="1000" />

<glyph glyph-name="layout-grid2-alt" unicode="&#xe8a1;" d="M0 850h412v-412h-412v412z m529 0v-412h412v412h-412z m-529-941h412v412h-412v-412z m529 0h412v412h-412v-412z" horiz-adv-x="1000" />

<glyph glyph-name="layout-grid2-thumb" unicode="&#xe8a2;" d="M0 732h177v-176h-177v176z m529-176h177v176h-177v-176z m-529-471h177v177h-177v-177z m529 0h177v177h-177v-177z m-294 589h236v58h-236v-58z m0-118h236v59h-236v-59z m530 176v-58h235v58h-235z m0-176h235v59h-235v-59z m-353-59h-177v-59h177v59z m529 0h-176v-59h176v59z m-706-294h236v59h-236v-59z m0-118h236v59h-236v-59z m530 118h235v59h-235v-59z m0-118h235v59h-235v-59z m-530-117h177v59h-177v-59z m530 0h176v59h-176v-59z" horiz-adv-x="1000" />

<glyph glyph-name="layout-grid3" unicode="&#xe8a3;" d="M0 556h294v294h-294v-294z m59 235h176v-176h-176v176z m294-235h294v294h-294v-294z m59 235h176v-176h-176v176z m294 59v-294h294v294h-294z m235-235h-176v176h176v-176z m-941-412h294v294h-294v-294z m59 235h176v-176h-176v176z m294-235h294v294h-294v-294z m59 235h176v-176h-176v176z m294-235h294v294h-294v-294z m59 235h176v-176h-176v176z m-765-588h294v294h-294v-294z m59 235h176v-176h-176v176z m294-235h294v294h-294v-294z m59 235h176v-176h-176v176z m294-235h294v294h-294v-294z m59 235h176v-176h-176v176z" horiz-adv-x="1000" />

<glyph glyph-name="layout-grid3-alt" unicode="&#xe8a4;" d="M0 850h294v-294h-294v294z m353-294h294v294h-294v-294z m353 294v-294h294v294h-294z m-706-647h294v294h-294v-294z m353 0h294v294h-294v-294z m353 0h294v294h-294v-294z m-706-353h294v294h-294v-294z m353 0h294v294h-294v-294z m353 0h294v294h-294v-294z" horiz-adv-x="1000" />

<glyph glyph-name="layout-grid4" unicode="&#xe8a5;" d="M59 615h176v176h-176v-176z m59 117h59v-58h-59v58z m176-117h177v176h-177v-176z m59 117h59v-58h-59v58z m176-117h177v176h-177v-176z m59 117h59v-58h-59v58z m177 59v-176h176v176h-176z m117-117h-58v58h58v-58z m-823-295h176v177h-176v-177z m59 118h59v-59h-59v59z m176-118h177v177h-177v-177z m59 118h59v-59h-59v59z m176-118h177v177h-177v-177z m59 118h59v-59h-59v59z m177-118h176v177h-176v-177z m59 118h58v-59h-58v59z m-765-353h176v177h-176v-177z m59 118h59v-59h-59v59z m176-118h177v177h-177v-177z m59 118h59v-59h-59v59z m176-118h177v177h-177v-177z m59 118h59v-59h-59v59z m177-118h176v177h-176v-177z m59 118h58v-59h-58v59z m-765-353h176v176h-176v-176z m59 118h59v-59h-59v59z m176-118h177v176h-177v-176z m59 118h59v-59h-59v59z m176-118h177v176h-177v-176z m59 118h59v-59h-59v59z m177-118h176v176h-176v-176z m59 118h58v-59h-58v59z" horiz-adv-x="1000" />

<glyph glyph-name="layout-grid4-alt" unicode="&#xe8a6;" d="M59 791h176v-176h-176v176z m235-176h177v176h-177v-176z m235 0h177v176h-177v-176z m236 176v-176h176v176h-176z m-706-412h176v177h-176v-177z m235 0h177v177h-177v-177z m235 0h177v177h-177v-177z m236 0h176v177h-176v-177z m-706-235h176v177h-176v-177z m235 0h177v177h-177v-177z m235 0h177v177h-177v-177z m236 0h176v177h-176v-177z m-706-235h176v176h-176v-176z m235 0h177v176h-177v-176z m235 0h177v176h-177v-176z m236 0h176v176h-176v-176z" horiz-adv-x="1000" />

<glyph glyph-name="layout-line-solid" unicode="&#xe8a7;" d="M1000 379v-58h-1000v58h1000z" horiz-adv-x="1000" />

<glyph glyph-name="layout-list-large-image" unicode="&#xe8a8;" d="M970 556h-146v59h146v-59z m-58-176h-88v-59h88v59z m-88 117v-59h176v59h-176z m0-294h176v59h-176v-59z m0-118h146v59h-146v-59z m-824 530h765v-530h-765v530z m59-471h647v412h-647v-412z" horiz-adv-x="1000" />

<glyph glyph-name="layout-list-post" unicode="&#xe8a9;" d="M824 556h-824v118h824v-118z m-824-59v-59h1000v59h-1000z m824-235h-824v-118h824v118z m-824-235h1000v58h-1000v-58z" horiz-adv-x="1000" />

<glyph glyph-name="layout-list-thumb" unicode="&#xe8aa;" d="M882 615h-529v59h529v-59z m-529-59v-59h647v59h-647z m-353 176h294v-294h-294v294z m59-235h176v177h-176v-177z m823-235h-529v-59h529v59z m-529-177h647v59h-647v-59z m-353 236h294v-294h-294v294z m59-236h176v177h-176v-177z" horiz-adv-x="1000" />

<glyph glyph-name="layout-list-thumb-alt" unicode="&#xe8ab;" d="M882 556h-529v59h529v-59z m-529-59v-59h647v59h-647z m-353-118h294v295h-294v-295z m882-176h-529v-59h529v59z m-529-176h647v58h-647v-58z m-353-59h294v294h-294v-294z" horiz-adv-x="1000" />

<glyph glyph-name="layout-media-center" unicode="&#xe8ac;" d="M59 615v-353h882v353h-882z m823-294h-764v235h764v-235z m-58-118v-59h-647v59h647z m-706-118h764v-58h-764v58z" horiz-adv-x="1000" />

<glyph glyph-name="layout-media-center-alt" unicode="&#xe8ad;" d="M59 85h882v-58h-882v58z m176-176h530v59h-530v-59z m765 882v-647h-1000v647h1000z m-59-59h-882v-529h882v529z" horiz-adv-x="1000" />

<glyph glyph-name="layout-media-left" unicode="&#xe8ae;" d="M588 615h343v-59h-343v59z m0-235h206v-59h-206v59z m1 117h411v-59h-411v59z m-1-235h412v-59h-412v59z m0-118h343v-59h-343v59z m-588-59h529v530h-529v-530z m59 471h412v-412h-412v412z" horiz-adv-x="1000" />

<glyph glyph-name="layout-media-left-alt" unicode="&#xe8af;" d="M0 85h882v-58h-882v58z m0-176h588v59h-588v-59z m1000 882v-647h-1000v647h1000z m-59-59h-882v-529h882v529z" horiz-adv-x="1000" />

<glyph glyph-name="layout-media-overlay" unicode="&#xe8b0;" d="M882 144h-764v59h764v-59z m-176-58h-588v-59h588v59z m294 705v-882h-1000v882h1000z m-59-59h-882v-764h882v764z" horiz-adv-x="1000" />

<glyph glyph-name="layout-media-overlay-alt" unicode="&#xe8b1;" d="M0 732v-705h1000v705h-1000z m59-471v413h882v-413h-882z" horiz-adv-x="1000" />

<glyph glyph-name="layout-media-overlay-alt-2" unicode="&#xe8b2;" d="M706 321h-588v58h588v-58z m0-59h-588v-59h588v59z m294 529v-882h-1000v882h1000z m-59-59h-882v-764h882v764z" horiz-adv-x="1000" />

<glyph glyph-name="layout-media-right" unicode="&#xe8b3;" d="M471 615v-530h529v530h-529z m470-471h-412v412h412v-412z m-872 471h343v-59h-343v59z m137-235h206v-59h-206v59z m205 58h-411v59h411v-59z m-410-176h411v-59h-411v59z m68-118h343v-59h-343v59z" horiz-adv-x="1000" />

<glyph glyph-name="layout-media-right-alt" unicode="&#xe8b4;" d="M118 85h882v-58h-882v58z m294-176h588v59h-588v-59z m588 882v-647h-1000v647h1000z m-59-59h-882v-529h882v529z" horiz-adv-x="1000" />

<glyph glyph-name="layout-menu" unicode="&#xe8b5;" d="M0 438v-176h765v176h-765z m471-59v-58h-177v58h177z m-412 0h176v-58h-176v58z m647-58h-177v58h177v-58z" horiz-adv-x="1000" />

<glyph glyph-name="layout-menu-full" unicode="&#xe8b6;" d="M0 438v-176h1000v176h-1000z m529-59h177v-58h-177v58z m-58-58h-177v58h177v-58z m-412 58h176v-58h-176v58z m882-58h-176v58h176v-58z" horiz-adv-x="1000" />

<glyph glyph-name="layout-menu-separated" unicode="&#xe8b7;" d="M0 262h294v176h-294v-176z m59 117h176v-58h-176v58z m294-117h294v176h-294v-176z m59 117h176v-58h-176v58z m294 59v-176h294v176h-294z m235-117h-176v58h176v-58z" horiz-adv-x="1000" />

<glyph glyph-name="layout-menu-v" unicode="&#xe8b8;" d="M177 791v-176h647v176h-647z m588-117h-530v58h530v-58z m-588-295h647v177h-647v-177z m58 118h530v-59h-530v59z m-58-353h647v177h-647v-177z m58 118h530v-59h-530v59z m-58-353h647v177h-647v-177z m58 118h530v-59h-530v59z" horiz-adv-x="1000" />

<glyph glyph-name="layout-placeholder" unicode="&#xe8b9;" d="M1 791v-883h1000v883h-1000z m478-441l-419-365v730l419-365z m-393 382h832l-417-363-415 363z m415-402l416-363h-833l417 363z m22 20l419 364v-731l-419 367z" horiz-adv-x="1000" />

<glyph glyph-name="layout-sidebar-2" unicode="&#xe8ba;" d="M1000 850v-1000h-235v1000h235z m-1000-1000h177v1000h-177v-1000z m647 0h59v59h-59v-59z m-202 0h51v59h-51v-59z m101 0h51v59h-51v-59z m-201 0h50v59h-50v-59z m-110 0h59v59h-59v-59z m0 824h59v58h-59v-58z m0-589h59v59h-59v-59z m0-117h59v59h-59v-59z m0 235h59v59h-59v-59z m0 235h59v59h-59v-59z m0 118h59v59h-59v-59z m0-235h59v58h-59v-58z m0 470h59v59h-59v-59z m110 0h50v59h-50v-59z m201 0h51v59h-51v-59z m-101 0h51v59h-51v-59z m202 0h59v59h-59v-59z m0-235h59v59h-59v-59z m0 118h59v58h-59v-58z m0-236h59v59h-59v-59z m0-117h59v58h-59v-58z m0-353h59v59h-59v-59z m0 117h59v59h-59v-59z m0 118h59v59h-59v-59z" horiz-adv-x="1000" />

<glyph glyph-name="layout-sidebar-left" unicode="&#xe8bb;" d="M0 850h294v-1000h-294v1000z m412-1000h59v59h-59v-59z m425 0h52v59h-52v-59z m-105 0h52v59h-52v-59z m-209 0h52v59h-52v-59z m105 0h52v59h-52v-59z m313 0h59v59h-59v-59z m0 824h59v58h-59v-58z m0-706h59v59h-59v-59z m0 470h59v59h-59v-59z m0 118h59v59h-59v-59z m0-235h59v58h-59v-58z m0-118h59v59h-59v-59z m0-118h59v59h-59v-59z m0 765v-59h59v59h-59z m-104-59h52v59h-52v-59z m-105 0h52v59h-52v-59z m-104 0h52v59h-52v-59z m-105 0h52v59h-52v-59z m-111 0h59v59h-59v-59z m0-823h59v59h-59v-59z m0 117h59v59h-59v-59z m0 353h59v59h-59v-59z m0-235h59v59h-59v-59z m0 353h59v59h-59v-59z m0 118h59v58h-59v-58z m0-353h59v58h-59v-58z" horiz-adv-x="1000" />

<glyph glyph-name="layout-sidebar-none" unicode="&#xe8bc;" d="M0-91h59v-59h-59v59z m824-59h58v59h-58v-59z m-118 0h59v59h-59v-59z m-118 0h59v59h-59v-59z m-117 0h58v59h-58v-59z m-118 0h59v59h-59v-59z m-235 0h59v59h-59v-59z m117 0h59v59h-59v-59z m706 0h59v59h-59v-59z m0 353h59v59h-59v-59z m0-118h59v59h-59v-59z m0 471h59v59h-59v-59z m0-235h59v58h-59v-58z m0 117h59v59h-59v-59z m0 236h59v58h-59v-58z m0-706h59v59h-59v-59z m0 882v-59h59v59h-59z m-706-59h59v59h-59v-59z m-117 0h59v59h-59v-59z m588 0h59v59h-59v-59z m-118 0h59v59h-59v-59z m-235 0h59v59h-59v-59z m471 0h58v59h-58v-59z m-353 0h58v59h-58v-59z m-471 0h59v59h-59v-59z m0-706h59v59h-59v-59z m0-117h59v59h-59v-59z m0 235h59v59h-59v-59z m0 353h59v59h-59v-59z m0-235h59v58h-59v-58z m0 353h59v58h-59v-58z m0-236h59v59h-59v-59z" horiz-adv-x="1000" />

<glyph glyph-name="layout-sidebar-right" unicode="&#xe8bd;" d="M1000 850v-1000h-294v1000h294z m-471-1000h59v59h-59v-59z m-104 0h52v59h-52v-59z m-314 0h52v59h-52v-59z m105 0h52v59h-52v-59z m104 0h53v59h-53v-59z m-320 0h59v59h-59v-59z m0 471h59v58h-59v-58z m0 353h59v58h-59v-58z m0-471h59v59h-59v-59z m0 235h59v59h-59v-59z m0-353h59v59h-59v-59z m0-117h59v59h-59v-59z m0 588h59v59h-59v-59z m0 235h59v59h-59v-59z m477 59h-52v-59h52v59z m-104 0h-53v-59h53v59z m-210 0h-52v-59h52v59z m105 0h-52v-59h52v59z m261-59h59v59h-59v-59z m0-823h59v59h-59v-59z m0 117h59v59h-59v-59z m0 236h59v58h-59v-58z m0-118h59v59h-59v-59z m0 353h59v59h-59v-59z m0-118h59v59h-59v-59z m0 236h59v58h-59v-58z" horiz-adv-x="1000" />

<glyph glyph-name="layout-slider" unicode="&#xe8be;" d="M0 791v-823h1000v823h-1000z m941-764h-882v705h882v-705z m-668 214l-138 138 138 139 42-42-97-97 97-96-42-42z m412 42l97 96-97 97 42 42 138-139-138-138-42 42z" horiz-adv-x="1000" />

<glyph glyph-name="layout-slider-alt" unicode="&#xe8bf;" d="M118 27h764v647h-764v-647z m59 588h647v-530h-647v530z m764-31h59v-467h-59v467z m-941 0h59v-467h-59v467z" horiz-adv-x="1000" />

<glyph glyph-name="layout-tab" unicode="&#xe8c0;" d="M412 674v58h-412v-823h1000v765h-588z m235-59v-59h-235v59h235z m294-647h-882v706h294v-177h588v-529z m-235 588v59h235v-59h-235z" horiz-adv-x="1000" />

<glyph glyph-name="layout-tab-min" unicode="&#xe8c1;" d="M412 732v59h-412v-235h59v176h294v-176h647v176h-588z m0-58h235v-59h-235v59z m294-59v59h235v-59h-235z" horiz-adv-x="1000" />

<glyph glyph-name="layout-tab-v" unicode="&#xe8c2;" d="M353 791v-59h-353v-235h59v-235h294v-354h647v883h-647z m-235-294h235v-59h-235v59z m0-176v58h235v-58h-235z m823-354h-529v589h-353v118h353v58h529v-765z" horiz-adv-x="1000" />

<glyph glyph-name="layout-tab-window" unicode="&#xe8c3;" d="M706 732h-706v-823h1000v823h-294z m235-58v-118h-235v118h235z m-294 0v-118h-294v118h294z m-588 0h235v-118h-235v118z m882-706h-882v529h882v-529z" horiz-adv-x="1000" />

<glyph glyph-name="layout-width-default" unicode="&#xe8c4;" d="M0 850v-1000h1000v1000h-1000z m941-941h-882v882h882v-882z m-764 470h58v-58h-58v58z m0 236h58v-59h-58v59z m0-353h58v-59h-58v59z m0 235h58v-59h-58v59z m0 235h58v-58h-58v58z m0-705h58v-59h-58v59z m0 117h58v-59h-58v59z m588 588h59v-58h-59v58z m0-235h59v-59h-59v59z m0 118h59v-59h-59v59z m0-236h59v-58h-59v58z m0-117h59v-59h-59v59z m0-118h59v-59h-59v59z m0-117h59v-59h-59v59z" horiz-adv-x="1000" />

<glyph glyph-name="layout-width-default-alt" unicode="&#xe8c5;" d="M118-91h59v-59h-59v59z m470-59h59v59h-59v-59z m118 0h59v59h-59v-59z m-471 0h59v59h-59v-59z m118 0h59v59h-59v-59z m118 0h58v59h-58v-59z m353 0h58v59h-58v-59z m0 824h58v58h-58v-58z m0-118h58v59h-58v-59z m0-471h58v59h-58v-59z m0 353h58v59h-58v-59z m0-117h58v58h-58v-58z m0-353h58v59h-58v-59z m0 235h58v59h-58v-59z m0 647v-59h58v59h-58z m-118-59h59v59h-59v-59z m-353 0h59v59h-59v-59z m118 0h58v59h-58v-59z m117 0h59v59h-59v-59z m-353 0h59v59h-59v-59z m-117 0h59v59h-59v-59z m0-706h59v59h-59v-59z m0-117h59v59h-59v-59z m0 235h59v59h-59v-59z m0 471h59v58h-59v-58z m0-118h59v59h-59v-59z m0-118h59v59h-59v-59z m0-117h59v58h-59v-58z" horiz-adv-x="1000" />

<glyph glyph-name="layout-width-full" unicode="&#xe8c6;" d="M0 850v-1000h1000v1000h-1000z m941-941h-882v882h882v-882z" horiz-adv-x="1000" />

<glyph glyph-name="light-bulb" unicode="&#xe8c7;" d="M500 850c-178 0-323-154-323-343 0-139 56-216 106-284 38-51 70-95 70-157v-124c0-51 40-92 88-92h118c49 0 88 41 88 92v125c0 62 31 102 69 154 48 64 108 144 108 286 0 189-146 343-324 343z m59-941h-118c-16 0-29 15-29 33v96h176v-96c0-18-13-33-29-33z m110 347c-35-46-70-94-79-159h-180c-9 65-45 113-79 161-47 64-96 130-96 249 0 157 119 284 265 284s265-127 265-284c0-123-49-188-96-251z" horiz-adv-x="1000" />

<glyph glyph-name="line-dashed" unicode="&#xe8c8;" d="M0 379h235v-58h-235v58z m382-58h236v58h-236v-58z m383 58v-58h235v58h-235z" horiz-adv-x="1000" />

<glyph glyph-name="line-dotted" unicode="&#xe8c9;" d="M0 380h29v-59h-29v59z m140-59h56v59h-56v-59z m166 0h56v59h-56v-59z m333 0h55v58h-55v-58z m-167 0h56v58h-56v-58z m333 0h55v58h-55v-58z m166 58v-58h29v58h-29z" horiz-adv-x="1000" />

<glyph glyph-name="line-double" unicode="&#xe8ca;" d="M1000 497v-59h-1000v59h1000z m-1000-235h1000v59h-1000v-59z" horiz-adv-x="1000" />

<glyph glyph-name="link" unicode="&#xe8cb;" d="M764 442l-55-55-42 41 55 55c58 58 58 151 0 208s-150 58-208 0l-175-175c-58-58-58-151 0-208s150-58 207 0l42-42c-40-40-93-60-146-60s-105 20-145 60c-80 80-80 211 0 291l176 176c80 80 210 80 291 0 80-80 80-211 0-291z m-409-65l-7-7 41-42 8 8c57 57 151 57 208 0s57-151 0-208l-178-178c-57-58-151-58-208 0s-57 151 0 208l62 62-41 42-62-63c-81-80-81-211 0-291 40-40 92-60 145-60s106 20 146 60l178 178c80 80 80 211 0 291-81 81-211 81-292 0z" horiz-adv-x="1000" />

<glyph glyph-name="linkedin" unicode="&#xe8cc;" d="M41 508h202v-608h-202v608z m102 292c-68 0-114-46-114-105 0-58 44-105 112-105h1c71 0 115 47 114 105 0 59-43 105-113 105z m595-278c-107 0-155-59-182-101v87h-201c0 0 2-57 0-608h201v339c0 19 2 36 7 50 15 36 48 73 104 73 73 0 102-55 102-137v-325h202v348c0 187-100 274-233 274z" horiz-adv-x="1000" />

<glyph glyph-name="linux" unicode="&#xe8cd;" d="M815-47c-30-15-70-49-85-63-11-11-57-16-82-3-30 15-15 40-61 41-23 1-45 1-68 1-20-1-40-2-60-2-70-2-77-47-121-45-31 1-69 25-135 39-47 9-91 12-101 32-9 21 12 44 13 64 2 27-19 63-4 77 14 12 43 3 62 13 20 12 28 21 28 46 7-26 0-46-17-56-10-6-28-10-43-8-12 1-20 0-23-5-5-6-3-17 3-30 5-14 12-23 11-40 0-16-19-36-16-51 1-5 6-10 19-13 21-6 60-12 97-21 42-10 85-29 111-26 80 12 35 97 22 118-68 106-112 175-148 148-9-8-10 18-9 28 1 34 19 47 29 74 20 51 35 109 66 139 23 29 58 77 65 102-6 55-7 113-8 163-1 54 7 102 68 135 15 8 34 11 55 11 36 0 76-10 102-29 41-31 67-95 64-141-2-37 4-74 16-113 13-46 35-78 69-114 42-44 74-131 84-186 8-52-3-84-14-85-17-3-28-56-80-54-34 2-37 22-46 39-16 27-31 18-37-10-3-14-1-35 4-51 10-33 6-64 1-103-11-72 51-86 92-51 41 34 50 39 101 57 79 27 52 51 10 65-37 13-39 76-25 88 3-68 39-78 53-87 65-40-24-74-62-93z m-89 254c15 47 8 66-1 111-7 33-38 79-63 93 7-5 18-20 30-44 21-39 42-97 29-146-6-18-18-21-27-22-36-4-15 45-30 110-17 74-35 79-39 85-22 95-46 86-52 121-6 33 27 59-18 68-14 2-34 17-42 18-8 1-12 53 17 54 29 2 34-32 29-46-8-14 0-19 15-14 11 3 4 34 6 38-7 44-25 51-44 54-73-6-40-85-47-78-11 11-41 1-41 8 0 41-14 64-32 65-21 1-30-29-31-46-2-15 9-49 17-46 5 2 14 12 5 12-5 0-12 11-14 25 0 14 5 27 23 27 21-1 21-42 18-43-6-5-15-14-16-16-7-11-20-14-25-19-9-9-11-20-4-23 24-14 16-30 50-31 22-1 38 3 53 8 12 4 49 12 57 25 4 6 8 6 10 5 6-3 7-13-6-16-19-5-37-15-54-22-16-7-21-9-37-12-34-6-60 13-37-10 8-7 15-12 35-11 44 1 93 54 98 31 1-6-14-12-25-18-41-20-70-60-96-46-24 13-48 71-47 45 0-41-53-76-29-123-16-4-52-81-57-121-4-23 2-51-4-67-8-23-44 22-32 77 2 9 0 12-3 7-14-26-6-62 6-87 4-11 16-16 25-26 19-20 91-74 104-87 16-15 11-51-22-55 17-33 34-36 33-89 20 11 12 34 4 49-6 10-13 15-12 17 1 2 12 11 18 4 18-20 51-24 87-19 36 4 75 17 93 46 8 14 14 18 18 16 4-2 6-12 5-28-1-16-7-34-12-48-5-16-6-27 9-28 5 30 13 58 15 88 3 34-21 96 5 127 7 8 15 9 27 9 1 42 66 39 87 22 0 9-20 18-29 22z m-428 151c-4-7-13-12-6-13 3-1 10 6 13 13 3 9 5 14 1 15-4 2-3-8-8-15z m120 285c-6 1-5-8-2-7 2 0 5-3 4-8-1-6-1-11 4-11 0 0 1 0 1 2 3 13-4 23-7 24z m14-49c-5 0-4 12 13 11-11-1-7-11-13-11z m43 9c16 7 21-3 16-6-6-1-6 9-16 6z m64 43c-7-1-5-4-2-5 5-1 9-8 10-16 0-1 5 1 5 2 1 13-10 19-13 19z m30 113c-4 4-8 8-12 8-11-1-5-12-7-17-2-6-10-11-5-15 5-4 8 6 18 9 3 2 15 0 17 6 1 2-6 6-11 9z m59-232c-10 6-12 17-16 13-11-12 14-37 24-39 6-1 11 7 10 15-3 9-10 6-18 11z" horiz-adv-x="1000" />

<glyph glyph-name="list" unicode="&#xe8ce;" d="M1000 615v-59h-706v59h706z m-823-30c0-48-40-88-89-88s-88 40-88 88 40 89 88 89 89-40 89-89z m-59 0c0 17-13 30-30 30s-29-13-29-30 13-29 29-29 30 13 30 29z m176-264h706v58h-706v-58z m-117 29c0-49-40-88-89-88s-88 39-88 88 40 88 88 88 89-39 89-88z m-59 0c0 16-13 29-30 29s-29-13-29-29 13-29 29-29 30 13 30 29z m176-265h706v59h-706v-59z m-117 30c0-49-40-88-89-88s-88 39-88 88 40 88 88 88 89-40 89-88z m-59 0c0 16-13 29-30 29s-29-13-29-29 13-30 29-30 30 14 30 30z" horiz-adv-x="1000" />

<glyph glyph-name="list-ol" unicode="&#xe8cf;" d="M1000 615v-59h-706v59h706z m-706-294h706v58h-706v-58z m0-236h706v59h-706v-59z m-171 560h0v-140h21v161h-18l-35-19 4-17 28 15z m-27-358l13 12c34 32 56 56 56 86 0 23-15 47-50 47-18 0-34-7-45-17l7-15c7 6 19 14 34 14 24 0 32-15 32-32 0-24-19-45-60-84l-17-16v-14h102v19h-72v0z m36-166v1c19 7 29 21 29 37 0 20-14 39-46 39-17 0-33-6-42-13l6-15c7 4 19 10 32 10 20 0 28-11 28-24 0-19-20-27-35-27h-13v-16h12c21 0 42-10 42-33 0-13-8-31-36-31-15 0-30 7-36 11l-6-17c8-5 24-11 42-11 38 0 58 22 58 48 0 22-16 37-35 41z" horiz-adv-x="1000" />

<glyph glyph-name="location-arrow" unicode="&#xe8d0;" d="M116 734l311-829 71 447 447 71-829 311z m331-331l-43-269-187 500 499-188-269-43z" horiz-adv-x="1000" />

<glyph glyph-name="location-pin" unicode="&#xe8d1;" d="M500 609c-65 0-118-53-118-118 0-64 53-117 118-117s118 53 118 117c0 36-18 71-41 88-24 18-48 30-77 30z m0 212c-176 0-323-147-323-324 0-259 288-594 300-606l23-23 24 23c11 12 300 347 300 606 0 177-147 324-324 324z m0-506c-100 0-176 76-176 176 0 100 76 177 176 177s177-77 177-177c0-100-77-176-177-176z" horiz-adv-x="1000" />

<glyph glyph-name="lock" unicode="&#xe8d2;" d="M559 205c0-22-12-40-30-50v-127h-58v127c-18 10-30 28-30 50 0 32 27 58 59 58 32 0 59-26 59-58z m321 147v-416c0-49-39-88-88-88h-587c-49 0-89 39-89 88v416c0 49 40 89 89 89h1v117c0 162 132 294 294 294s294-132 294-294v-118c48-1 86-40 86-88z m-615 89h470v117c0 129-105 235-235 235s-235-106-235-235v-117z m557-89c0 16-13 28-28 29v0h-588v1h-1c-17 0-30-13-30-30v-416c0-16 13-30 30-30h587c16 0 30 14 30 30v416z" horiz-adv-x="1000" />

<glyph glyph-name="loop" unicode="&#xe8d3;" d="M59 321c0-130 101-236 224-236v-58c-156 0-283 131-283 294s127 294 283 294h249l-97 97 42 41 168-168-168-168-42 42 97 97h-249c-123 0-224-106-224-235z m658 294v-59c124 0 224-106 224-235s-100-236-224-236h-249l97 97-42 42-167-168 167-168 42 42-97 97h249c156 0 283 131 283 294s-127 294-283 294z" horiz-adv-x="1000" />

<glyph glyph-name="magnet" unicode="&#xe8d4;" d="M647 850v-595c0-79-66-142-147-142s-147 63-147 142v595h-294v-614c0-251 227-386 441-386s441 135 441 386v614h-294z m235-59v-176h-176v176h176z m-588 0v-176h-176v176h176z m206-882c-154 0-382 87-382 327v320h176v-301c0-111 93-201 206-201s206 90 206 201v301h176v-320c0-240-228-327-382-327z" horiz-adv-x="1000" />

<glyph glyph-name="map" unicode="&#xe8d5;" d="M618 589l-289 83-329 2v-647h315l305-88 321 95v649l-323-94z m-265 15l235-68v-526l-235 67v527z m-294 11h235v-531l-235 1v530z m823-537l-235-69v527l235 69v-527z" horiz-adv-x="1000" />

<glyph glyph-name="map-alt" unicode="&#xe8d6;" d="M882 615v-4l0 3-60-13c-8 106-96 190-204 190-109 0-197-84-205-190l-60 13v1h-353v-647h315l305-87 321 94v640h-59z m-264 117c81 0 147-66 147-147 0-106-101-247-147-306-46 59-147 200-147 306 0 81 66 147 147 147z m-265-179l64-13c24-134 141-282 171-318v-271l-235 67v535z m-294 3h235v-530l-235 1v529z m588-606v272c30 36 148 185 172 318l63 14v-535l-235-69z m51 630c0 45-36 80-80 80s-80-35-80-80 36-79 80-79 80 35 80 79z m-101 0c0 12 9 22 21 22s21-10 21-22-10-21-21-21-21 10-21 21z" horiz-adv-x="1000" />

<glyph glyph-name="marker" unicode="&#xe8d7;" d="M626 791h-45c-14 35-45 59-82 59h-145c-17 0-31-5-41-16-19-18-19-45-19-73v-693l109-137h9v-81l59 40v41h8l109 137v664h38c20 0 21-31 21-38v-251h59v251c0 57-33 97-80 97z m-272 0h145c17 0 31-17 31-38v-197h-177v205c0 11 0 29 1 30z m97-801h-20l-78 98 0 409h176v-409l-78-98z" horiz-adv-x="1000" />

<glyph glyph-name="marker-alt" unicode="&#xe8d8;" d="M921 516l-32 32c5 10 8 21 9 33 1 25-7 49-25 66l-102 103c-13 12-26 18-41 18-26 0-45-19-65-39l-532-532-19-173 6-7-57-57 70-13 29 29 6-6 173 19 512 512 27-27c4-4 5-8 4-14-1-9-7-19-16-28l-178-177 42-42 177 178c18 18 29 38 33 58 5 25-3 49-21 67z m-607-470l-125-15-14 14 15 125 330 331 125-125-331-330z m373 372l-125 125 145 144c8 9 20 21 22 21l103-102c7-7 7-17 7-22-1-9-5-19-13-27l-139-139z" horiz-adv-x="1000" />

<glyph glyph-name="medall" unicode="&#xe8d9;" d="M500 850c-162 0-294-132-294-294 0-81 33-156 92-213 5-5 10-9 16-13l6-5c11-8 22-15 33-21v-425l146 112 148-112v425c11 6 23 13 33 21l6 5c6 4 11 8 16 13 60 57 92 132 92 213 0 162-132 294-294 294z m88-853l-89 68-87-66v248c28-10 58-15 88-15s60 5 88 15v-250z m74 389c-4-3-7-6-11-9l-7-5c-85-67-203-67-287 0l-8 5c-4 3-7 6-11 9-47 45-73 105-73 170 0 130 105 235 235 235s235-105 235-235c0-65-26-125-73-170z m-18 257l11-57-107-20 67-114-50-30-64 108-65-108-50 30 68 114-105 20 11 57 111-21v110h58v-110l115 21z" horiz-adv-x="1000" />

<glyph glyph-name="medall-alt" unicode="&#xe8da;" d="M500 850c-162 0-294-132-294-294 0-81 33-156 92-213 5-5 10-9 16-13l6-5c11-8 22-15 33-21v-425l146 112 148-112v425c11 6 23 13 33 21l6 5c6 4 11 8 16 13 60 57 92 132 92 213 0 162-132 294-294 294z m88-853l-89 68-87-66v248c28-10 58-15 88-15s60 5 88 15v-250z m74 389c-4-3-7-6-11-9l-7-5c-85-67-203-67-287 0l-8 5c-4 3-7 6-11 9-47 45-73 105-73 170 0 130 105 235 235 235s235-105 235-235c0-65-26-125-73-170z m-59 170c0-57-46-103-103-103s-103 46-103 103 46 103 103 103 103-46 103-103z" horiz-adv-x="1000" />

<glyph glyph-name="menu" unicode="&#xe8db;" d="M941 674v-118h-882v118h882z m-882-412h882v117h-882v-117z m0-294h882v117h-882v-117z" horiz-adv-x="1000" />

<glyph glyph-name="menu-alt" unicode="&#xe8dc;" d="M941 732v-117h-647v117h647z m-647-411h647v117h-647v-117z m0-294h647v117h-647v-117z m-176 705c-33 0-59-26-59-58s26-59 59-59 59 26 59 59-27 58-59 58z m0-294c-33 0-59-26-59-59s26-58 59-58 59 26 59 58-27 59-59 59z m0-294c-33 0-59-26-59-59s26-58 59-58 59 26 59 58-27 59-59 59z" horiz-adv-x="1000" />

<glyph glyph-name="microphone" unicode="&#xe8dd;" d="M500 144c146 0 265 119 265 265v176c0 136-104 247-236 262v3h-58v-3c-132-15-236-126-236-262v-176c0-146 119-265 265-265z m-147 585v-114h59v156c18 8 38 14 59 17v-173h58v173c21-3 41-9 59-17v-156h59v114c36-37 59-88 59-144v-29h-412v29c0 56 23 107 59 144z m-59-232h412v-88c0-114-92-206-206-206s-206 92-206 206v88z m588-59v-191c0-121-118-220-264-220h-89v-177h-58v177h-89c-146 0-264 99-264 220v191h59v-191c0-89 92-162 205-162h236c113 0 206 73 206 162v191h58z" horiz-adv-x="1000" />

<glyph glyph-name="microphone-alt" unicode="&#xe8de;" d="M683 437c41 44 66 103 66 168 0 137-112 249-249 249s-249-112-249-249c0-65 25-124 66-168l67-469h87v-117h58v117h87l67 469z m-330 287v-109h59v157c18 10 38 17 59 20v-236h58v236c21-3 41-10 59-20v-157h59v109c27-33 43-74 43-119 0-105-85-191-190-191s-190 86-190 191c0 45 16 86 43 119z m82-697l-51 359c35-19 74-31 116-31s82 12 116 31l-51-359h-130z" horiz-adv-x="1000" />

<glyph glyph-name="microsoft" unicode="&#xe8df;" d="M455-75l545-75v472h-545v-397z m59 339h427v-347l-427 59v288z m-514-276l410-57v391h-410v-334z m59 276h292v-265l-292 40v225z m-59 109h410v396l-410-57v-339z m59 288l292 40v-269h-292v229z m396 114v-402h545v477l-545-75z m486-343h-427v292l427 59v-351z" horiz-adv-x="1000" />

<glyph glyph-name="microsoft-alt" unicode="&#xe8e0;" d="M0 712l410 57v-396h-410v339z m0-724l410-57v391h-410v-334z m455 787v-402h545v477l-545-75z m0-850l545-75v472h-545v-397z" horiz-adv-x="1000" />

<glyph glyph-name="minus" unicode="&#xe8e1;" d="M882 379v-58h-764v58h764z" horiz-adv-x="1000" />

<glyph glyph-name="mobile" unicode="&#xe8e2;" d="M735 850h-470c-49 0-88-40-88-88v-824c0-48 39-88 88-88h470c49 0 89 40 89 88v824c0 48-40 88-89 88z m-470-59h470c17 0 30-13 30-29v-88h-530v88c0 16 14 29 30 29z m500-176v-471h-530v471h530z m-30-706h-470c-16 0-30 13-30 29v147h530v-147c0-16-13-29-30-29z m-206 88c0-16-13-29-29-29s-29 13-29 29 13 30 29 30 29-14 29-30z" horiz-adv-x="1000" />

<glyph glyph-name="money" unicode="&#xe8e3;" d="M631 287v0l-1 0c-1 1-1 2-2 2l0 0-99 75v336c68-13 118-68 118-135l29-3 30 3c0 99-77 180-177 194v91h-58v-91c-100-14-177-95-177-194 0-55 25-108 68-145l0-1 2-1c0 0 0 0 0 0v0l107-82v-336c-67 13-118 68-118 135h-59c0-99 77-180 177-194v-91h58v91c100 14 177 95 177 194 0 59-28 114-75 152z m-230 176c-30 26-48 63-48 102 0 67 51 122 118 135v-290l-70 53z m128-463v290l65-50c34-26 53-64 53-105 0-67-50-122-118-135z" horiz-adv-x="1000" />

<glyph glyph-name="more" unicode="&#xe8e4;" d="M118 497c-65 0-118-53-118-118s53-117 118-117 117 53 117 117-52 118-117 118z m0-176c-33 0-59 26-59 58s26 59 59 59 59-26 59-59-27-58-59-58z m382 176c-65 0-118-53-118-118s53-117 118-117 118 53 118 117-53 118-118 118z m0-176c-32 0-59 26-59 58s27 59 59 59 59-26 59-59-27-58-59-58z m382 176c-65 0-117-53-117-118s52-117 117-117 118 53 118 117-53 118-118 118z m0-176c-32 0-58 26-58 58s26 59 58 59 59-26 59-59-26-58-59-58z" horiz-adv-x="1000" />

<glyph glyph-name="more-alt" unicode="&#xe8e5;" d="M235 379c0-64-52-117-117-117s-118 53-118 117 53 118 118 118 117-53 117-118z m265 118c-65 0-118-53-118-118s53-117 118-117 118 53 118 117-53 118-118 118z m382 0c-65 0-117-53-117-118s52-117 117-117 118 53 118 117-53 118-118 118z" horiz-adv-x="1000" />

<glyph glyph-name="mouse" unicode="&#xe8e6;" d="M500 850c-178 0-323-145-323-323v-353c0-179 145-324 323-324s324 145 324 324v353c0 178-146 323-324 323z m265-676c0-146-119-265-265-265s-265 119-265 265v353c0 145 119 264 265 264s265-119 265-264v-353z m-265 470c-49 0-88-39-88-88v-118c0-48 39-88 88-88s88 40 88 88v118c0 49-39 88-88 88z m29-206c0-16-13-29-29-29s-29 13-29 29v118c0 16 13 29 29 29s29-13 29-29v-118z" horiz-adv-x="1000" />

<glyph glyph-name="mouse-alt" unicode="&#xe8e7;" d="M500 850c-178 0-323-145-323-323v-353c0-179 145-324 323-324s324 145 324 324v353c0 178-146 323-324 323z m265-323v-30h-236v291c132-15 236-126 236-261z m-294 261v-291h-236v30c0 135 104 246 236 261z m29-879c-146 0-265 119-265 265v264h530v-264c0-146-119-265-265-265z" horiz-adv-x="1000" />

<glyph glyph-name="music" unicode="&#xe8e8;" d="M869 588l24 53-422 196v-581c-30 26-69 43-112 43-95 0-171-77-171-172s76-171 171-171 171 77 171 171c0 3 0 6-1 9v609l340-157z m-510-573c-62 0-113 50-113 112s51 113 113 113 113-51 113-113-51-112-113-112z" horiz-adv-x="1000" />

<glyph glyph-name="music-alt" unicode="&#xe8e9;" d="M353 834v-542c-30 26-69 43-112 43-95 0-171-77-171-172s76-171 171-171c92 0 167 73 171 165v0 0c0 2 0 4 0 6s0 4 0 6v359l529-104v-274c-30 26-69 43-112 43-95 0-172-77-172-172s77-171 172-171c93 0 169 75 171 168l0 0v690l-647 126z m-112-783c-62 0-113 50-113 112s51 113 113 113c60 0 109-47 112-107v-12c-3-59-52-106-112-106z m171 537v175l529-104v-175l-529 104z m417-679c-62 0-113 50-113 112s51 113 113 113 112-50 112-113-50-112-112-112z" horiz-adv-x="1000" />

<glyph glyph-name="na" unicode="&#xe8ea;" d="M500 821c-259 0-471-211-471-471s212-471 471-471 471 212 471 471-211 471-471 471z m0-59c103 0 197-38 269-101l-580-580c-62 72-101 166-101 269 0 227 185 412 412 412z m0-824c-103 0-197 38-269 101l580 580c63-72 101-166 101-269 0-227-185-412-412-412z" horiz-adv-x="1000" />

<glyph glyph-name="new-window" unicode="&#xe8eb;" d="M882 732v-441h-58v334l-549-549-42 41 556 557h-348v58h441z m-235-823h-588v588h387v59h-446v-706h706v454h-59v-395z" horiz-adv-x="1000" />

<glyph glyph-name="notepad" unicode="&#xe8ec;" d="M59 850v-1000h882v1000h-882z m823-941h-764v882h117v-64c-34-12-58-45-58-83 0-48 39-88 88-88s88 40 88 88c0 38-25 71-59 83v64h177v-64c-35-12-59-45-59-83 0-48 39-88 88-88s88 40 88 88c0 38-24 71-59 83v64h177v-64c-34-12-59-45-59-83 0-48 40-88 88-88s89 40 89 88c0 38-25 71-59 83v64h117v-882z m-588 735c0-16-13-29-29-29s-30 13-30 29 14 30 30 30 29-14 29-30z m235 0c0-16-13-29-29-29s-29 13-29 29 13 30 29 30 29-14 29-30z m236 0c0-16-13-29-30-29s-29 13-29 29 13 30 29 30 30-14 30-30z" horiz-adv-x="1000" />

<glyph glyph-name="package" unicode="&#xe8ed;" d="M501 852l-501-189v-629l500-188 500 188v629l-499 189z m386-209l-152-58-385 147 151 57 386-146z m-387-146l-387 145 153 58 386-146-152-57z m-441 103l412-155v-525l-412 154v526z m470-680v525l412 155v-526l-412-154z" horiz-adv-x="1000" />

<glyph glyph-name="paint-bucket" unicode="&#xe8ee;" d="M982 273l-521 524-8-7c-39 39-91 60-147 60 0 0 0 0 0 0-56 0-108-22-148-61-39-40-61-92-61-148 0-55 22-107 61-147l-130-130c-18-18-28-41-28-66 0-26 10-49 28-67l283-286c17-17 41-27 66-27 25 0 49 10 67 27l327 327 211 1z m-826 368c0 40 16 78 44 106 28 29 66 44 106 44 0 0 0 0 0 0 40 0 77-15 105-43l-212-212c-28 28-43 65-43 105z m246-654c-7-7-16-10-25-10s-18 3-25 10l-214 216h480l-216-216z m275 275h-597l-11 11c-6 6-10 15-10 25 0 9 4 18 10 25l392 391 380-383-95 0-69-69z m246-115l-24 35-25-35c-18-27-80-118-80-165 0-57 46-103 103-103s103 47 103 103c0 46-59 138-77 165z m-26-209c-24 0-44 20-44 44 0 14 21 55 45 94 24-39 43-79 43-94 0-24-20-44-44-44z" horiz-adv-x="1000" />

<glyph glyph-name="paint-roller" unicode="&#xe8ef;" d="M882 732v118h-764v-118h-31c-48 0-87-39-87-88v-176c0-49 39-89 87-89h355c16 0 29-13 29-29v-88h-59v-412h176v412h-58v88c0 49-40 88-88 88h-355c-15 0-28 14-28 30v176c0 16 13 30 28 30h31v-177h764v177h59v58h-59z m-353-823h-58v294h58v-294z m295 647h-647v235h647v-235z" horiz-adv-x="1000" />

<glyph glyph-name="palette" unicode="&#xe8f0;" d="M500 821c-259 0-471-211-471-471 0-252 198-458 449-470l76-3-160 160c-17 17-26 39-26 63s9 45 26 62c33 33 91 33 125 0l218-219 20 13c134 88 214 235 214 394 0 260-211 471-471 471z m245-802l-185 185c-55 55-152 55-208 0-27-28-43-65-43-104s16-77 43-105l44-43c-178 46-308 207-308 398 0 227 185 412 412 412s412-185 412-412c0-131-62-253-167-331z m-68 449c-65 0-118-53-118-118s53-118 118-118 117 53 117 118-53 118-117 118z m0-177c-33 0-59 27-59 59s26 59 59 59 58-27 58-59-26-59-58-59z m-177 206c-49 0-88 40-88 88s39 89 88 89c49 0 88-40 88-89s-39-88-88-88z m-162 7c0-33-26-59-59-59s-58 26-58 59 26 58 58 58 59-26 59-58z" horiz-adv-x="1000" />

<glyph glyph-name="panel" unicode="&#xe8f1;" d="M0 850v-1000h1000v1000h-1000z m941-941h-882v882h882v-882z m-706 339v-163h59v163c44 13 76 53 76 100s-32 87-76 100v167h-59v-167c-43-13-75-52-75-100s32-87 75-100z m30 146c25 0 46-20 46-46s-21-46-46-46-46 21-46 46 20 46 46 46z m206-21v-288h58v288c44 13 76 53 76 100s-32 87-76 100v42h-58v-42c-44-13-76-52-76-100s32-87 76-100z m29 146c25 0 46-20 46-46s-21-46-46-46-46 21-46 46 21 46 46 46z m235-458c58 0 105 47 105 105 0 47-32 87-75 100v349h-59v-349c-43-13-75-53-75-100 0-58 47-105 104-105z m0 151c26 0 46-21 46-46s-20-46-46-46-46 20-46 46 21 46 46 46z" horiz-adv-x="1000" />

<glyph glyph-name="paragraph" unicode="&#xe8f2;" d="M941 790h-647c-129 0-233-105-233-233s104-233 233-233h177v-415h58v822h119v-822h59v822h234v59z m-470-407h-177c-96 0-174 78-174 174 0 96 78 174 174 174h177v-348z" horiz-adv-x="1000" />

<glyph glyph-name="pencil" unicode="&#xe8f3;" d="M914 682l-83 83c-33 33-91 33-125 0l-533-533-101-311 309 104 532 532c35 35 35 91 1 125z m-732-614l38 116 114-113-116-39-36 36z m74 163l323 323 125-124-324-323-124 124z m365 365l43 43 124-124-43-43-124 124z m251 3l-42-43-125 125 43 42c11 11 30 11 41 0l83-83c11-11 11-30 0-41z" horiz-adv-x="1000" />

<glyph glyph-name="pencil-alt" unicode="&#xe8f4;" d="M971 742l-83 82c-33 33-91 33-125 0l-443-443-101-311 308 104 444 443c16 17 25 39 25 62s-9 46-25 63z m-642-525l37 115 113-113-114-38-36 36z m73 163l234 234 125-124-235-234-124 124z m276 276l43 43 124-124-43-43-124 124z m251 2l-42-42-124 124 42 43c11 11 30 11 41 0l83-83c6-6 9-13 9-21s-3-15-9-21z m-47-249h59v-559h-941v882h441v-58h-382v-765h823v500z" horiz-adv-x="1000" />

<glyph glyph-name="pencil-alt2" unicode="&#xe8f5;" d="M558 850h-116c-49 0-89-40-89-88v-627l149-292 145 292v627c0 48-40 88-89 88z m-116-59h116c17 0 30-13 30-29v-60h-176v60c0 16 13 29 30 29z m33-766l-55 108h160l-54-108h-51z m-63 167v332h176v-332h-176z m0 390v61h176v-61h-176z" horiz-adv-x="1000" />

<glyph glyph-name="pie-chart" unicode="&#xe8f6;" d="M882 324l58-4c-15-231-209-411-440-411-243 0-441 198-441 441 0 230 179 423 408 440l4-59c-198-14-353-182-353-381 0-211 171-382 382-382 201 0 368 156 382 356z m118 85v-29l-29-1h-441v471l30 0c243 0 440-198 440-441z m-60 28c-13 187-163 338-351 353v-353h351z" horiz-adv-x="1000" />

<glyph glyph-name="pin" unicode="&#xe8f7;" d="M706 585c0 114-92 206-206 206s-206-92-206-206c0-102 76-187 174-202v-474h59v473c101 14 179 99 179 203z m-206-147c-81 0-147 66-147 147s66 147 147 147 147-66 147-147-66-147-147-147z m88 118h-59c0 32-26 59-58 59v59c65 0 117-53 117-118z" horiz-adv-x="1000" />

<glyph glyph-name="pin2" unicode="&#xe8f8;" d="M471 174h58v-324h-58v324z m353 158v-129h-647v129l64 29 65 371-25 46-40 72h518l-40-72-25-46 65-371 65-29z m-59-38l-58 26-6 31-68 392 10 18 16 30h-318l26-48-3-21-71-402-58-26v-32h530v32z" horiz-adv-x="1000" />

<glyph glyph-name="pin-alt" unicode="&#xe8f9;" d="M318 210l42-42-310-309-41 41 309 310z m682 274l-129-37-216-309 25-66-92-91-457 457 91 92 66-25 309 216 14 50 23 79 366-366z m-112 29l-225 225-10-33-6-20-351-247-59 23-23-23 374-374 23 23-11 30-12 29 19 26 228 325 20 6 33 10z" horiz-adv-x="1000" />

<glyph glyph-name="pinterest" unicode="&#xe8fa;" d="M884 484c0-225-125-392-309-392-61 0-119 33-139 71-33-131-40-157-40-157-12-44-36-87-58-122-61-43-67 24-67 24-1 40-1 89 10 132 0 0 11 46 73 311-18 36-18 90-18 90 0 85 49 148 110 148 52 0 77-39 77-86 0-52-33-130-50-202-14-61 30-110 90-110 108 0 181 139 181 303 0 126-85 220-238 220-173 0-281-130-281-274 0-50 15-85 38-112 10-13 12-17 8-32-3-11-9-36-12-46-3-15-15-20-28-15-80 33-117 121-117 219 0 162 137 357 408 357 218 0 362-158 362-327z" horiz-adv-x="1000" />

<glyph glyph-name="pinterest-alt" unicode="&#xe8fb;" d="M500 821c-260 0-471-211-471-471 0-193 116-358 282-431-1 33 0 72 8 108 9 38 61 257 61 257s-15 30-15 74c0 70 40 122 91 122 42 0 63-32 63-71 0-43-27-107-41-167-12-50 25-90 74-90 89 0 149 114 149 250 0 103-69 180-196 180-143 0-231-106-231-225 0-41 12-70 31-93 8-10 9-14 6-26-2-8-7-29-9-38-3-12-13-16-24-11-66 26-96 98-96 179 0 134 113 294 336 294 180 0 298-130 298-269 0-185-103-323-254-323-51 0-98 28-115 59 0 0-27-108-33-129-10-37-29-73-47-101 42-13 87-20 133-20 260 0 471 211 471 471s-211 471-471 471z" horiz-adv-x="1000" />

<glyph glyph-name="plug" unicode="&#xe8fc;" d="M177 615v-295c0-162 145-293 323-293s324 131 324 293v295h-647z m588-295c0-129-119-235-265-235s-265 106-265 235v236h530v-236z m-352 354h-59v176h59v-176z m233 0h-59v176h59v-176z m-175-647h58v-177h-58v177z m176 352h-294v59h294v-59z m0-117h-294v59h294v-59z" horiz-adv-x="1000" />

<glyph glyph-name="plus" unicode="&#xe8fd;" d="M941 321h-412v-412h-58v412h-412v58h412v412h58v-412h412v-58z" horiz-adv-x="1000" />

<glyph glyph-name="power-off" unicode="&#xe8fe;" d="M941 291c0-243-198-441-441-441s-441 198-441 441c0 206 146 387 346 431l13-57c-174-38-300-195-300-374 0-211 171-382 382-382s382 171 382 382c0 178-126 335-299 374l12 57c201-44 346-225 346-431z m-412 559h-58v-588h58v588z" horiz-adv-x="1000" />

<glyph glyph-name="printer" unicode="&#xe8ff;" d="M1000 497h-177v107l-265 246h-382v-353h-176v-470h177v-183h647v183h176v470z m-412 245l137-127h-137v127z m-353 49h294v-235h235v-59h-529v294z m530-888h-530v294h530v-294z m176 182h-117v171h-647v-171h-118v353h882v-353z m-294 0h-353v59h353v-59z m-118-117h-235v59h235v-59z m-352 353h-59v58h59v-58z m117 0h-59v58h59v-58z" horiz-adv-x="1000" />

<glyph glyph-name="pulse" unicode="&#xe900;" d="M843 379l-110 258-203-576-236 772-139-454h-155v-58h198l96 311 232-759 212 602 66-154h196v58z" horiz-adv-x="1000" />

<glyph glyph-name="quote-left" unicode="&#xe901;" d="M775 402c-43 0-84-13-117-36 72 204 235 228 243 229l-7 59c-3-1-301-42-327-455l1 0c0-1-1-3-1-4 0-115 93-208 208-208s207 93 207 208-93 207-207 207z m0-356c-82 0-149 67-149 149s67 148 149 148 148-66 148-148-66-149-148-149z m-555 356c-44 0-84-13-117-36 72 204 235 228 243 229l-7 59c-3-1-301-42-327-455l1 0c0-1-1-3-1-4 0-115 93-208 208-208s207 93 207 208-93 207-207 207z m0-356c-82 0-149 67-149 149s67 148 149 148 148-66 148-148-66-149-148-149z" horiz-adv-x="1000" />

<glyph glyph-name="quote-right" unicode="&#xe902;" d="M430 446c0 115-93 208-208 208-114 0-207-93-207-208 0-114 93-207 207-207 43 0 84 13 117 36-73-204-235-228-243-229l7-59c3 1 301 42 327 455l-1 0c0 1 1 3 1 4z m-208-148c-82 0-148 66-148 148s66 149 148 149c82 0 149-67 149-149s-67-148-149-148z m762 144c0 1 1 3 1 4 0 115-93 208-208 208s-207-93-207-208c0-114 93-207 207-207 44 0 84 13 117 36-72-204-235-228-243-229l7-59c3 1 301 42 327 455l-1 0z m-207-144c-82 0-148 66-148 148s66 149 148 149 149-67 149-149-67-148-149-148z" horiz-adv-x="1000" />

<glyph glyph-name="receipt" unicode="&#xe903;" d="M118 850v-994l119 146 88-111 89 110 88-110 88 110 88-110 89 110 115-144v993h-764z m706-826l-57 72-89-111-88 111-88-111-88 111-89-111-88 110-60-74v770h647v-767z m-177 591h-353v59h353v-59z m-118-236h-235v59h235v-59z m176 118h-412v59h412v-59z m-411-235h412v-59h-412v59z" horiz-adv-x="1000" />

<glyph glyph-name="reddit" unicode="&#xe904;" d="M917 266c1-10 2-20 2-29 0-77-45-148-126-201-79-52-184-81-295-81s-216 29-294 81c-82 53-127 124-127 201 0 10 1 21 3 31-30 19-51 53-51 91 0 59 48 107 108 107 26 0 51-10 70-26 76 48 175 76 281 78l63 200c3 9 13 14 22 13l165-39c13 31 45 53 81 53 49 0 88-40 88-89 0-48-39-88-88-88-49 0-88 39-88 88l-150 35-55-174c100-4 194-32 266-79 19 17 44 28 71 28 60 0 108-48 108-107 0-40-22-75-54-93z m-827 40c15 41 44 79 86 111-11 8-25 12-39 12-39 0-71-31-71-70 0-21 9-40 24-53z m792-69c0 63-39 124-109 170-73 47-171 74-275 74s-201-27-275-74c-70-46-109-107-109-170 0-64 39-125 109-171 74-48 171-74 275-74s202 26 275 74c70 46 109 107 109 171z m-523-14c-36 0-66 29-66 64 0 36 30 66 66 66s65-30 65-66c0-35-30-64-65-64z m293-95c7-7 7-18 0-26-32-31-81-47-151-47h-1c-71 0-120 16-152 47-7 8-7 19 0 26 7 8 19 8 26 0 25-24 65-36 126-36h1c59 0 101 12 125 36 7 8 19 8 26 0z m55 159c0-35-29-64-65-64s-66 29-66 64c0 36 31 66 66 66s65-30 65-66z m60 369c0-28 23-51 52-51s52 23 52 51c0 29-24 52-52 52-29 0-52-23-52-52z m167-297c0 39-32 70-71 70-15 0-29-4-40-13 40-33 69-71 84-113 17 13 27 33 27 56z" horiz-adv-x="1000" />

<glyph glyph-name="reload" unicode="&#xe905;" d="M353 379h-353v353h59v-241c59 188 237 322 441 322 206 0 390-139 446-337l-57-16c-49 173-209 295-389 295-190-1-354-134-395-317h248v-59z m294-58v-59h248c-41-183-205-316-395-316-180 0-340 121-389 294l-56-16c56-198 239-337 445-337 204 0 381 134 441 322v-241h59v353h-353z" horiz-adv-x="1000" />

<glyph glyph-name="rocket" unicode="&#xe906;" d="M706 203c0 59 0 294 0 353 0 294-177 294-177 294s-176 0-176-294 0-118 0-353c0 0-118 0-118-353 0 0 140 140 254 170 0-34 18-62 40-62s41 28 41 62c114-30 254-170 254-170 0 353-118 353-118 353z m-177 588c16-1 99-16 115-176h-229c16 160 99 175 114 176z m0-706c-74 0-161-51-228-101 16 125 51 155 59 160h52v412h235v-412h52c8-5 43-35 59-160-67 50-154 101-229 101z" horiz-adv-x="1000" />

<glyph glyph-name="rss" unicode="&#xe907;" d="M586 27h-58c0 190-158 344-351 344v59c226 0 409-181 409-403z m-409 617v-59c313 0 558-245 558-558h59c0 346-271 617-617 617z m176-529c0 48-39 88-88 88-49 0-88-40-88-88s39-89 88-89c49 0 88 40 88 89z m-59 0c0-16-13-30-29-30-16 0-30 14-30 30 0 16 14 29 30 29 16 0 29-13 29-29z m706-177v824c0 48-40 88-88 88h-824c-48 0-88-40-88-88v-824c0-48 40-88 88-88h824c48 0 88 40 88 88z m-88 853c16 0 29-13 29-29v-824c0-16-13-29-29-29h-824c-16 0-29 13-29 29v824c0 16 13 29 29 29h824z" horiz-adv-x="1000" />

<glyph glyph-name="rss-alt" unicode="&#xe908;" d="M657-150h-59c0 324-268 588-598 588v59c362 0 657-290 657-647z m-657 1000v-59c528 0 941-413 941-941h59c0 561-439 1000-1000 1000z m235-882c0 65-52 117-117 117-65 0-118-52-118-117 0-65 53-118 118-118 65 0 117 53 117 118z m-58 0c0-33-27-59-59-59-33 0-59 26-59 59 0 32 26 59 59 59 32 0 59-27 59-59z" horiz-adv-x="1000" />

<glyph glyph-name="ruler" unicode="&#xe909;" d="M294 850v-1000h412v1000h-412z m353-941h-294v58h118v59h-118v59h59v59h-59v59h118v59h-118v58h59v59h-59v58h118v59h-118v60h59v59h-59v59h118v58h-118v59h294v-882z" horiz-adv-x="1000" />

<glyph glyph-name="ruler-alt" unicode="&#xe90a;" d="M708 849l-707-707 291-291 707 707-291 291z m-624-707l41 41 83-83 42 41-83 84 42 42 42-42 41 42-41 41 41 42 83-83 42 41-83 84 41 41 41-42 42 42-42 41 42 42 83-83 42 41-84 83 43 43 41-42 42 42-42 41 42 42 83-83 42 41-84 83 42 42 208-208-624-624-208 208z" horiz-adv-x="1000" />

<glyph glyph-name="ruler-alt-2" unicode="&#xe90b;" d="M0 833v-983h983l-983 983z m59-142l174-174-39-39 42-41 38 38 42-41-38-39 41-42 39 39 41-42-38-38 42-42 38 39 42-42-39-39 42-41 38 38 42-41-38-39 41-42 39 39 41-42-38-38 42-42 38 39 150-150h-782v782z m59-723h453l-453 453v-453z m59 311l252-252h-252v252z" horiz-adv-x="1000" />

<glyph glyph-name="ruler-pencil" unicode="&#xe90c;" d="M264 850h-116c-49 0-89-40-89-88v-627l149-292 145 292v627c0 48-40 88-89 88z m-116-59h116c16 0 30-13 30-29v-60h-176v60c0 16 13 29 30 29z m-30-209v61h176v-61h-176z m114-557h-51l-63 124v375h59v-382h59v382h58v-375l-62-124z m239 825v-1000h411v1000h-411z m353-941h-295v58h118v59h-118v59h59v59h-59v59h118v59h-118v58h59v59h-59v58h118v59h-118v60h59v59h-59v59h118v58h-118v59h295v-882z" horiz-adv-x="1000" />

<glyph glyph-name="save" unicode="&#xe90d;" d="M833 850h-745c-48 0-88-40-88-88v-824c0-48 40-88 88-88h824c48 0 88 40 88 88v749l-167 163z m-362-59v-235h176v235h59v-294h-471v294h236z m-294-882v353h647v-353h-647z m764 29c0-16-13-29-29-29h-30v412h-764v-412h-30c-16 0-29 13-29 29v824c0 16 13 29 29 29h89v-353h588v353h44l132-129v-724z" horiz-adv-x="1000" />

<glyph glyph-name="save-alt" unicode="&#xe90e;" d="M912 850h-745l-167-163v-749c0-48 40-88 88-88h824c48 0 88 40 88 88v824c0 48-40 88-88 88z m-147-59v-117h-471v117h471z m-588-882v59h647v-59h-647z m764 29c0-16-13-29-29-29h-30v118h-764v-118h-30c-16 0-29 13-29 29v724l132 129h44v-176h589v176h88c16 0 29-13 29-29v-824z m-441 618c-113 0-206-92-206-206s93-206 206-206 206 93 206 206-92 206-206 206z m0-353c-81 0-147 66-147 147s66 147 147 147 147-66 147-147-66-147-147-147z" horiz-adv-x="1000" />

<glyph glyph-name="search" unicode="&#xe90f;" d="M977-83l-305 304c58 67 93 154 93 248 0 211-172 383-383 383-102 0-198-40-270-112-72-72-112-169-112-271 0-210 172-382 382-382 95 0 182 35 249 92l304-304 42 42z m-595 229c-178 0-323 145-323 323 0 87 33 168 95 229 61 61 142 95 228 95 179 0 324-145 324-324 0-178-145-323-324-323z" horiz-adv-x="1000" />

<glyph glyph-name="server" unicode="&#xe910;" d="M1000 644c0 134-258 206-500 206s-500-72-500-206c0-9 1-19 5-29h-5v-559c0-134 258-206 500-206s500 72 500 206v559h-5c4 10 5 20 5 29z m-500 147c253 0 441-77 441-147 0-23-23-49-64-72-84-47-224-75-377-75s-293 28-377 75c-41 23-64 49-64 72 0 70 189 147 441 147z m0-882c-252 0-441 77-441 147v96c10-8 21-16 35-24 92-51 244-82 406-82 20 0 40 1 60 2 139 6 265 35 346 80v0c0 0 0 0 0 0 14 8 25 16 35 24v-96c0-70-188-147-441-147z m377 271c-84-47-224-75-377-75-19 0-38 0-57 1-130 6-247 33-320 74v0c-41 23-64 49-64 72v96c10-8 22-16 35-24 92-51 244-82 406-82s314 31 406 82c14 8 25 16 35 24v-96c0-23-23-49-64-72z m0 196c-84-47-224-75-377-75s-293 28-377 75c-41 23-64 49-64 72v96c10-8 21-16 35-24 92-51 244-82 406-82s314 31 406 82c14 8 25 16 35 24v-96c0-23-23-49-64-72z" horiz-adv-x="1000" />

</font>
</defs>
</svg>
